Важное объявление!
У Нас Все раздачи мультитрекерные, при нуле пиров в релизах, можете смело вставать на закачку!
 
Автор Сообщение

HUNTER

Стаж:
4 года 4 месяца
Сообщений:
56749

Репутация: 101

[+] [-]
Вне форума [Профиль] [ЛС]

Отпуск-
Год выпуска: 2012
Страна: Россия
Жанр: криминал
Продолжительность: 01:26:17
Перевод: Оригинал-Режиссер: Андрей Коршунов
Сценарий: Константин Горский, Андрей Тумаркин, Вадим Карев
Продюсер: Инесса Юрченко, Сергей Щеглов, Алексей Рыбин
Оператор: Юрий Литвинов
Композитор: Виталий Муканяев
Художник: Александр Суворов, Ольга Веретельник, Сергей Селиванов
Монтаж: Генрих Кен-В ролях: Денис Рожков (Иван Кудрявцев), Денис Синявский (Хан), Елена Купрашевич (Анна), Андрей Мокеев (дед Василий), Маргарита Адаева (Маша), Светлана Бакулина (Света), Дмитрий Поддубный (дед), Вячеслав Гумеров (лесник), Игорь Копылов (доктор), Геннадий Меньшиков (Чибис)
-Описание: Иван, капитан полиции, в свой выходной день, который, к слову, не часто ему выпадает, отправился с женой Светой в кино. Хан, Анна и Сергей тоже решили провести день вместе. Только они не собираются в кино или просто погулять. Их время расписано по минутам, каждый шаг выверен — они намерены ограбить инкассаторов. Все начиналось удачно для грабителей, и все бы прошло, как было задумано, если бы на пути грабителей не встретился Иван. Хан и Сергей арестованы. Но уходя от преследования Хан застрелил жену Ивана Свету. Анне удается уйти.Прошло несколько лет. Иван по-прежнему работает в полиции. Из случайно услышанного разговора коллег Иван узнает, что из одной из тюрем сбежали заключенные, среди которых был Хан. Иван сразу догадывается, что Хан захочет встретиться с третьим участником их банды, имя которого тогда так и не назвали ни сам Хан, ни его подельник Сергей.Иван, пообещав скостить срок, уговаривает Сергея назвать имя третьего участника и где его искать. Иван отправляется в деревню, где живет Анна. Так маленькая деревня превращается в поле боя. И никто не собирается сдаваться.-Премьера (РФ): 30 ноября 2012
Рейтинг:-Качество: SATRip
Формат: AVI
Видео кодек: XviD
Аудио кодеk: MP3
Видео: 720x400 (1.80:1), 25 fps, XviD MPEG-4 ~2069 kbps avg, 0.29 bit/pixel
Аудио: Аудио #1: 48 kHz, MPEG Layer 3, 2 ch, ~192.00 kbps avg
-

МедиаИнфо

Код: copyText_writeLink('this.parentNode.parentNode.nextSibling.nextSibling'); General
Complete name : Otpusk.2012.SATRip.avi
Format : AVI
Format/Info : Audio Video Interleave
File size : 1.37 GiB
Duration : 1h 26mn
Overall bit rate : 2 269 Kbps
Writing application : VirtualDubMod 1.5.4.1 (build 2178/release)
Writing library : VirtualDubMod build 2178/release
Video
ID : 0
Format : MPEG-4 Visual
Format profile : Advanced Simple@L5
Format settings, BVOP : Yes
Format settings, QPel : No
Format settings, GMC : No warppoints
Format settings, Matrix : Custom
Codec ID : XVID
Codec ID/Hint : XviD
Duration : 1h 26mn
Bit rate : 2 069 Kbps
Width : 720 pixels
Height : 400 pixels
Display aspect ratio : 16:9
Frame rate : 25.000 fps
Color space : YUV
Chroma subsampling : 4:2:0
Bit depth : 8 bits
Scan type : Progressive
Bits/(Pixel*Frame) : 0.287
Stream size : 1.25 GiB (91%)
Writing library : XviD 64
Audio
ID : 1
Format : MPEG Audio
Format version : Version 1
Format profile : Layer 3
Mode : Joint stereo
Mode extension : MS Stereo
Codec ID : 55
Codec ID/Hint : MP3
Duration : 1h 26mn
Bit rate mode : Constant
Bit rate : 192 Kbps
Channel(s) : 2 channels
Sampling rate : 48.0 KHz
Stream size : 119 MiB (8%)
Alignment : Aligned on interleaves
Interleave, duration : 80 ms (2.00 video frames)
Interleave, preload duration : 504 ms
Writing library : LAME3.97
Encoding settings : -m j -V 4 -q 2 -lowpass 18.6 -b 192
-
-- -

_________________
Показать сообщения:    

Текущее время: Сегодня 00:41

Часовой пояс: GMT



Вы не можете начинать темы
Вы не можете отвечать на сообщения
Вы не можете редактировать свои сообщения
Вы не можете удалять свои сообщения
Вы не можете голосовать в опросах
Вы не можете прикреплять файлы к сообщениям
Вы не можете скачивать файлы