Важное объявление!
У Нас Все раздачи мультитрекерные, при нуле пиров в релизах, можете смело вставать на закачку!
 
Автор Сообщение

HUNTER

Стаж:
4 года 4 месяца
Сообщений:
56842

Репутация: 101

[+] [-]
Вне форума [Профиль] [ЛС]

Откройте, полиция! / My New Partner / Les ripoux
Страна: Франция
Жанр: комедия, криминал
Год выпуска: 1984
Продолжительность: 01:46:39
Перевод 1: Профессиональный (многоголосый закадровый) CP-Digital Russian
Перевод 2: Профессиональный (дублированный) Russian
Перевод 3: Профессиональный (многоголосый закадровый) ОРТ Russian
Cубтитры: русские
Оригинальная аудиодорожка: французский
Режиссер: Клод Зиди / Claude Zidi
В ролях: Филипп Нуаре, Тьерри Лермитт, Режин, Грейс Де Капитани, Клод Броссе, Альбер Симоно, Жюльен Гиомар, Анри Атталь, Абу Бакар, Пьер Батон
Описание: Опытный полицейский-пройдоха Рене обучает хитростям мошенничества своего юного напарника-идеалиста Франсуа. Напарник так входит в раж, что затмевает своего насквозь коррумпированного наставника.
delia
Сэмпл: http://sendfile.su/935050
Тип релиза: BDRip 720p
Контейнер: MKV
Видео: AVC 1202 x 720 (1,669) at 24,000 fps, 8940 kbps
Аудио 1: Russian 48 kHz, AC3 Dolby Digital, 3/2 (L,C,R,l,r) + LFE ch, ~ 448kbps (Многоголосый закадровый, CP-Digital)
Аудио 2: Russian 48 kHz, AC3 Dolby Digital , 2/0 (L,R) ch, ~192 kbps (Советский Дубляж)
Аудио 3: Russian 48 kHz, AC3 Dolby Digital , 2/0 (L,R) ch, ~192 kbps (Многоголосый закадровый, ОРТ)
Аудио 4: Ukrainian 48 kHz, AC3 Dolby Digital,2/0 (L,R) ch, ~192 kbps (Многоголосый закадровый, НТН)
Аудио 5: French 48 kHz/24-bit, DTS,2/0 (L,R) ch, ~768 kbps

ДопInfo

Сохранены оригинальные чаптеры как на Blu-ray.
В Советском дубляже губоукладка отсутствует как класс. Плюс есть вставки многоголоски.
За украинскую дорожку большое спасибо hurtom.

MediaInfo

Общее
Уникальный идентификатор : 171727108557651112129009271705748157871 (0x81317024ECA620B5A014546029F8B5AF)
Полное имя : D:\Les ripoux\Les.ripoux.1984.720p.BluRay.3xRus.Ukr.Fre.HDCLUB-SbR.mkv
Формат : Matroska
Версия формата : Version 4 / Version 2
Размер файла : 8,16 Гбайт
Продолжительность : 1 ч. 46 м.
Общий поток : 11,0 Мбит/сек
Дата кодирования : UTC 2014-02-04 14:39:32
Программа кодирования : mkvmerge v6.7.0 ('Back to the Ground') 32bit built on Jan 10 2014 19:46:37
Библиотека кодирования : libebml v1.3.0 + libmatroska v1.4.1
Видео
Идентификатор : 1
Формат : AVC
Формат/Информация : Advanced Video Codec
Профиль формата : High@L4.1
Параметр CABAC формата : Да
Параметр ReFrames формата : 9 кадров
Идентификатор кодека : V_MPEG4/ISO/AVC
Продолжительность : 1 ч. 46 м.
Битрейт : 8940 Кбит/сек
Ширина : 1202 пикселя
Высота : 720 пикселей
Соотношение сторон : 1,669
Режим частоты кадров : Постоянный
Частота кадров : 24,000 кадра/сек
Цветовое пространство : YUV
Субдискретизация насыщенности : 4:2:0
Битовая глубина : 8 бит
Тип развёртки : Прогрессивная
Бит/(Пиксели*Кадры) : 0.430
Размер потока : 6,66 Гбайт (82%)
Библиотека кодирования : x264 core 142 r2389kMod 956c8d8
Настройки программы : cabac=1 / ref=9 / deblock=1:-3:-3 / analyse=0x3:0x133 / me=tesa / subme=10 / psy=1 / fade_compensate=0.00 / psy_rd=0.90:0.00 / mixed_ref=1 / me_range=24 / chroma_me=1 / trellis=2 / 8x8dct=1 / cqm=0 / deadzone=21,11 / fast_pskip=0 / chroma_qp_offset=-2 / threads=6 / lookahead_threads=1 / sliced_threads=0 / nr=0 / decimate=1 / interlaced=0 / bluray_compat=0 / constrained_intra=0 / fgo=0 / bframes=12 / b_pyramid=2 / b_adapt=2 / b_bias=0 / direct=3 / weightb=1 / open_gop=0 / weightp=2 / keyint=250 / keyint_min=24 / scenecut=40 / intra_refresh=0 / rc=crf / mbtree=0 / crf=19.0000 / qcomp=0.75 / qpmin=0 / qpmax=69 / qpstep=4 / ip_ratio=1.30 / pb_ratio=1.20 / aq=1:0.80
Язык : English
Default : Да
Forced : Нет
Коэффициенты матрицы : BT.709
Аудио #1
Идентификатор : 2
Формат : AC-3
Формат/Информация : Audio Coding 3
Расширение режима : CM (complete main)
Параметр Endianness формата : Big
Идентификатор кодека : A_AC3
Продолжительность : 1 ч. 46 м.
Вид битрейта : Постоянный
Битрейт : 448 Кбит/сек
Каналы : 6 каналов
Расположение каналов : Front: L C R, Side: L R, LFE
Частота : 48,0 КГц
Битовая глубина : 16 бит
Метод сжатия : С потерями
Размер потока : 342 Мбайт (4%)
Заголовок : Многоголосый закадровый, CP-Digital
Язык : Russian
Default : Да
Forced : Нет
Аудио #2
Идентификатор : 3
Формат : AC-3
Формат/Информация : Audio Coding 3
Расширение режима : CM (complete main)
Параметр Endianness формата : Big
Идентификатор кодека : A_AC3
Продолжительность : 1 ч. 46 м.
Вид битрейта : Постоянный
Битрейт : 192 Кбит/сек
Каналы : 2 канала
Расположение каналов : Front: L R
Частота : 48,0 КГц
Битовая глубина : 16 бит
Метод сжатия : С потерями
Размер потока : 146 Мбайт (2%)
Заголовок : Дубляж
Язык : Russian
Default : Нет
Forced : Нет
Аудио #3
Идентификатор : 4
Формат : AC-3
Формат/Информация : Audio Coding 3
Расширение режима : CM (complete main)
Параметр Endianness формата : Big
Идентификатор кодека : A_AC3
Продолжительность : 1 ч. 46 м.
Вид битрейта : Постоянный
Битрейт : 192 Кбит/сек
Каналы : 2 канала
Расположение каналов : Front: L R
Частота : 48,0 КГц
Битовая глубина : 16 бит
Метод сжатия : С потерями
Размер потока : 146 Мбайт (2%)
Заголовок : Многоголосый закадровый, ОРТ
Язык : Russian
Default : Нет
Forced : Нет
Аудио #4
Идентификатор : 5
Формат : AC-3
Формат/Информация : Audio Coding 3
Расширение режима : CM (complete main)
Параметр Endianness формата : Big
Идентификатор кодека : A_AC3
Продолжительность : 1 ч. 46 м.
Вид битрейта : Постоянный
Битрейт : 192 Кбит/сек
Каналы : 2 канала
Расположение каналов : Front: L R
Частота : 48,0 КГц
Битовая глубина : 16 бит
Метод сжатия : С потерями
Размер потока : 146 Мбайт (2%)
Заголовок : Многоголосый закадровый, НТН
Язык : Ukrainian
Default : Нет
Forced : Нет
Аудио #5
Идентификатор : 6
Формат : DTS
Формат/Информация : Digital Theater Systems
Режим : 16
Параметр Endianness формата : Big
Идентификатор кодека : A_DTS
Продолжительность : 1 ч. 46 м.
Вид битрейта : Постоянный
Битрейт : 768 Кбит/сек
Каналы : 2 канала
Расположение каналов : Front: L R
Частота : 48,0 КГц
Битовая глубина : 24 бит
Метод сжатия : С потерями
Размер потока : 586 Мбайт (7%)
Язык : French
Default : Нет
Forced : Нет
Текст
Идентификатор : 7
Формат : UTF-8
Идентификатор кодека : S_TEXT/UTF8
Идентификатор кодека/Информация : UTF-8 Plain Text
Язык : Russian
Default : Нет
Forced : Нет
Меню
00:00:00.000 : en:00:00:00.000
00:10:15.542 : en:00:10:15.542
00:20:16.000 : en:00:20:16.000
00:27:12.917 : en:00:27:12.917
00:37:27.792 : en:00:37:27.792
00:47:08.417 : en:00:47:08.417
00:57:08.667 : en:00:57:08.667
01:03:20.750 : en:01:03:20.750
01:13:22.875 : en:01:13:22.875
01:20:30.542 : en:01:20:30.542
01:30:04.542 : en:01:30:04.542
01:37:52.833 : en:01:37:52.833

Скриншоты


_________________
Показать сообщения:    

Текущее время: Сегодня 12:23

Часовой пояс: GMT



Вы не можете начинать темы
Вы не можете отвечать на сообщения
Вы не можете редактировать свои сообщения
Вы не можете удалять свои сообщения
Вы не можете голосовать в опросах
Вы не можете прикреплять файлы к сообщениям
Вы не можете скачивать файлы