Важное объявление!
У Нас Все раздачи мультитрекерные, при нуле пиров в релизах, можете смело вставать на закачку!
 
Автор Сообщение

HUNTER

Стаж:
4 года 4 месяца
Сообщений:
56853

Репутация: 101

[+] [-]
Вне форума [Профиль] [ЛС]

Откройте, полиция! 2 / Ripoux Contre Ripoux
Название: Откройте, полиция! 2
Оригинальное название: Ripoux Contre Ripoux
Год выпуска: 1990
Страна: Франция
Жанр: комедия, криминал
Продолжительность: 01:41:53
Перевод #1: профессиональный (многоголосый закадровый), CP Digital
Перевод #2: профессиональный (многоголосый закадровый), ОРТ
Оригинальная аудиодорожка: французский
Русские субтитры: есть
Навигация по главам: нет-Режиссер: Клод Зиди / Claude Zidi
В ролях: Филипп Нуаре, Тьерри Лермитт, Ги Маршан, Жан-Пьер Кастальди, Грейс Де Капитани, Лин Рено, Мишель Омон, Жан-Клод Бриали, Жан Бенгиги, Кристиан Буйетт
Описание: Продажный и его неподкупный напарник попались на пустяке, и их выгнали из полиции, после чего им пришлось уехать на ферму к старому другу Нуаре. Пришедшая же им на смену пара негодяев поставила вымогательство на широкую ногу. С таким размахом, что все мелкие жулики, смеявшиеся над старостью и юностью наших героев, против которых дружно давали показания, просто взвыли. Взвыли и послали делегацию к отверженным бедолагам, забавляющимся мошенничеством на скачках. Они умоляли их вернуться и спасти от новых полицейских, по форме "работы" больше напоминающих беспредельных рэкитеров. И они вернулись...-Качество: HDTV 1080i (Interlaced video)
Формат: MKV
Видео кодек: AVC, L4.0
Аудио кодек: AC3
Видео: 1440x1080i@1920x1080i; 25 fps; ~ 4100 Kbps
Аудио #1: Русский; AC3, 192 Kbps, 48 kHz, 2 ch | MVO (CP Digital)
Аудио #2: Русский; AC3, 192 Kbps, 48 kHz, 2 ch | MVO (ОРТ)
Аудио #4: Французский; AC3, 192 Kbps, 48 kHz, 2 ch | Original, DVD R2
Аудио #5: Французский; AC3, 192 Kbps, 48 kHz, 2 ch | Original, HDTV, Mono
Субтитры: Русские (SRT), спасибо Taran2L_87
Дополнительная информация: Запись HDTV трансляции скачана с "забугорного" сайта. Исходники аудиодорожек извлечены с DVD, спасибо Anath. Все исходные многоканальные дорожки - "дутые", поэтому сделан Downmix из 5.1 в стерео.
Скачать сэмпл - http://multi-up.com/945675

MediaInfo

General
Unique ID : 172676110525711010424645779124275925909 (0x81E8358DBFEBF178B4994CAA88B45395)
Complete name : E:\MyRazd\Ripoux contre ripoux.1990.HDTV.1080i.mkv
Format : Matroska
Format version : Version 4 / Version 2
File size : 3.59 GiB
Duration : 1h 43mn
Overall bit rate mode : Variable
Overall bit rate : 4 981 Kbps
Movie name : Ripoux contre ripoux.1990
Encoded date : UTC 2014-01-30 07:07:10
Writing application : mkvmerge v6.2.0 ('Promised Land') built on Apr 28 2013 12:22:01
Writing library : libebml v1.3.0 + libmatroska v1.4.0
Video
ID : 1
Format : AVC
Format/Info : Advanced Video Codec
Format profile : High@L4.0
Format settings, CABAC : Yes
Format settings, ReFrames : 4 frames
Codec ID : V_MPEG4/ISO/AVC
Duration : 1h 43mn
Bit rate mode : Variable
Bit rate : 4 114 Kbps
Maximum bit rate : 40.0 Mbps
Width : 1 440 pixels
Height : 1 080 pixels
Display aspect ratio : 16:9
Frame rate : 25.000 fps
Color space : YUV
Chroma subsampling : 4:2:0
Bit depth : 8 bits
Scan type : MBAFF
Bits/(Pixel*Frame) : 0.106
Stream size : 2.97 GiB (83%)
Title : Ripoux contre ripoux.1990.HDTV.1080i
Language : French
Default : Yes
Forced : No
Audio #1
ID : 2
Format : AC-3
Format/Info : Audio Coding 3
Mode extension : CM (complete main)
Codec ID : A_AC3
Duration : 1h 43mn
Bit rate mode : Constant
Bit rate : 192 Kbps
Channel(s) : 2 channels
Channel positions : Front: L R
Sampling rate : 48.0 KHz
Bit depth : 16 bits
Compression mode : Lossy
Stream size : 142 MiB (4%)
Title : MVO (CP Digital)
Language : Russian
Default : Yes
Forced : No
Audio #2
ID : 3
Format : AC-3
Format/Info : Audio Coding 3
Mode extension : CM (complete main)
Codec ID : A_AC3
Duration : 1h 43mn
Bit rate mode : Constant
Bit rate : 192 Kbps
Channel(s) : 2 channels
Channel positions : Front: L R
Sampling rate : 48.0 KHz
Bit depth : 16 bits
Compression mode : Lossy
Stream size : 142 MiB (4%)
Title : MVO (ORT)
Language : Russian
Default : No
Forced : No
Audio #3
ID : 4
Format : AC-3
Format/Info : Audio Coding 3
Mode extension : CM (complete main)
Codec ID : A_AC3
Duration : 1h 43mn
Bit rate mode : Constant
Bit rate : 192 Kbps
Channel(s) : 2 channels
Channel positions : Front: L R
Sampling rate : 48.0 KHz
Bit depth : 16 bits
Compression mode : Lossy
Stream size : 142 MiB (4%)
Title : Original (DVD R2)
Language : French
Default : No
Forced : No
Audio #4
ID : 5
Format : AC-3
Format/Info : Audio Coding 3
Mode extension : CM (complete main)
Codec ID : A_AC3
Duration : 1h 43mn
Bit rate mode : Constant
Bit rate : 192 Kbps
Channel(s) : 2 channels
Channel positions : Front: L R
Sampling rate : 48.0 KHz
Bit depth : 16 bits
Compression mode : Lossy
Stream size : 142 MiB (4%)
Title : Original (HDTV)
Language : French
Default : No
Forced : No
Text
ID : 6
Format : UTF-8
Codec ID : S_TEXT/UTF8
Codec ID/Info : UTF-8 Plain Text
Language : Russian
Default : No
Forced : No

Скриншоты

Все раздачи фильма Откройте, полиция! 2 / Ripoux Contre Ripoux* При использовании материалов раздачи, ссылка на автора релиза обязательна. (:

_________________
Показать сообщения:    

Текущее время: Сегодня 11:17

Часовой пояс: GMT



Вы не можете начинать темы
Вы не можете отвечать на сообщения
Вы не можете редактировать свои сообщения
Вы не можете удалять свои сообщения
Вы не можете голосовать в опросах
Вы не можете прикреплять файлы к сообщениям
Вы не можете скачивать файлы
Наши партнеры: интернет магазин Ивановского трикотажа textilla.ru