Важное объявление!
У Нас Все раздачи мультитрекерные, при нуле пиров в релизах, можете смело вставать на закачку!
 
Автор Сообщение

HUNTER

Стаж:
4 года 4 месяца
Сообщений:
56765

Репутация: 101

[+] [-]
Вне форума [Профиль] [ЛС]

Отель «Нуар» / Hotel Noir
Год выпуска: 2012
Страна: США
Жанр: драма, криминал
Длительность: 01:36:32
Перевод: Авторский (одноголосый, А.Дольский)
Оригинальная аудиодорожка: Английский
Субтитры: нет
Режиссер: Себастьян Гутьеррес (Sebastian Gutierrez)
Продюссер: Стив Бинг, Себастьян Гутьеррес, Зэк Шварц
Сценарий: Себастьян Гутьеррес
Премьера в мире: 9 октября 2012
IMDB 6.10 (399)

Сэмпл: Яндекс.Диск
В ролях: Малин Акерман, Аарон Бер, Джон Колелла, Кевин Коннолли, Мишель Доули, Розарио Доусон, Дэнни ДеВито, Эндрю Фисцелла, Роберт Форстер, Карла Гуджино
Описание: Криминальный триллер с эротическим окрасом, действие которого разворачивается в Лос-Анджелесе 50-х. Главный герой истории — детектив, спрятавшийся в отеле от своего убийцы.
Качество: BDRip 1080p
Формат: MKV
Видео кодек: H.264
Аудио кодек: DTS
Видео: х264 ~10300 kbps /1920х798 / 23,976 fps / 2,40:1 / High Profile 4.1
Аудио#1: Russian: DTS 5.1 1509 kbps 48 kHz 16-bit – закадровый (одноголосый, А.Дольский);
Аудио#2: English: DTS 5.1 1509 kbps 48 kHz 16-bit - original.

MediaInfo

Код:
General
Unique ID                                : 207200476417826517749243929400263577242 (0x9BE15C363A20E7849CA64FF8FFB00E9A)
Complete name                            : D:\Hotel Noir.2012.BDRip.1080p.mkv
Format                                   : Matroska
Format version                           : Version 2
File size                                : 8.98 GiB
Duration                                 : 1h 36mn
Overall bit rate                         : 13.3 Mbps
Movie name                               : Отель «Нуар» / Hotel Noir.2012 MeGUI
Encoded date                             : UTC 2014-02-12 18:47:33
Writing application                      : mkvmerge v3.4.0 ('Rapunzel') сборка от May 15 2010 09:38:20
Writing library                          : libebml v0.8.0 + libmatroska v0.9.0
Video
ID                                       : 1
Format                                   : AVC
Format/Info                              : Advanced Video Codec
Format profile                           : High@L4.1
Format settings, CABAC                   : Yes
Format settings, ReFrames                : 4 frames
Codec ID                                 : V_MPEG4/ISO/AVC
Duration                                 : 1h 36mn
Bit rate                                 : 10.3 Mbps
Width                                    : 1 920 pixels
Height                                   : 798 pixels
Display aspect ratio                     : 2.40:1
Frame rate mode                          : Constant
Frame rate                               : 23.976 fps
Color space                              : YUV
Chroma subsampling                       : 4:2:0
Bit depth                                : 8 bits
Scan type                                : Progressive
Bits/(Pixel*Frame)                       : 0.280
Stream size                              : 6.77 GiB (75%)
Title                                    : MeGUI
Writing library                          : x264 core 138 r2358 9e941d1
Encoding settings                        : cabac=1 / ref=4 / deblock=1:-3:-3 / analyse=0x3:0x133 / me=umh / subme=11 / psy=1 / psy_rd=0.95:0.05 / mixed_ref=1 / me_range=48 / chroma_me=1 / trellis=2 / 8x8dct=1 / cqm=0 / deadzone=21,11 / fast_pskip=0 / chroma_qp_offset=-3 / threads=12 / lookahead_threads=1 / sliced_threads=0 / nr=0 / decimate=1 / interlaced=0 / bluray_compat=0 / constrained_intra=0 / bframes=6 / b_pyramid=2 / b_adapt=2 / b_bias=0 / direct=3 / weightb=1 / open_gop=0 / weightp=2 / keyint=240 / keyint_min=22 / scenecut=40 / intra_refresh=0 / rc_lookahead=60 / rc=2pass / mbtree=1 / bitrate=10300 / ratetol=1.0 / qcomp=0.70 / qpmin=0 / qpmax=69 / qpstep=4 / cplxblur=20.0 / qblur=0.5 / vbv_maxrate=50000 / vbv_bufsize=40000 / nal_hrd=none / ip_ratio=1.40 / aq=2:1.00
Language                                 : English
Default                                  : No
Forced                                   : No
Audio #1
ID                                       : 2
Format                                   : DTS
Format/Info                              : Digital Theater Systems
Mode                                     : 16
Format settings, Endianness              : Big
Codec ID                                 : A_DTS
Duration                                 : 1h 36mn
Bit rate mode                            : Constant
Bit rate                                 : 1 509 Kbps
Channel(s)                               : 6 channels
Channel positions                        : Front: L C R, Side: L R, LFE
Sampling rate                            : 48.0 KHz
Bit depth                                : 16 bits
Compression mode                         : Lossy
Stream size                              : 1.02 GiB (11%)
Title                                    : DTS 5.1 AVO-А.Дольский
Language                                 : Russian
Default                                  : Yes
Forced                                   : No
Audio #2
ID                                       : 3
Format                                   : DTS
Format/Info                              : Digital Theater Systems
Mode                                     : 16
Format settings, Endianness              : Big
Codec ID                                 : A_DTS
Duration                                 : 1h 36mn
Bit rate mode                            : Constant
Bit rate                                 : 1 509 Kbps
Channel(s)                               : 6 channels
Channel positions                        : Front: L C R, Side: L R, LFE
Sampling rate                            : 48.0 KHz
Bit depth                                : 16 bits
Compression mode                         : Lossy
Stream size                              : 1.02 GiB (11%)
Title                                    : DTS 5.1 Original
Language                                 : English
Default                                  : No
Forced                                   : No
Menu
00:00:00.000                             : en:00:00:00.000
00:14:25.865                             : en:00:14:25.865
00:25:51.300                             : en:00:25:51.300
00:38:32.560                             : en:00:38:32.560
00:53:12.064                             : en:00:53:12.064
01:07:51.276                             : en:01:07:51.276
01:13:34.660                             : en:01:13:34.660
01:20:28.657                             : en:01:20:28.657

Скриншоты


_________________
Показать сообщения:    

Текущее время: Сегодня 01:31

Часовой пояс: GMT



Вы не можете начинать темы
Вы не можете отвечать на сообщения
Вы не можете редактировать свои сообщения
Вы не можете удалять свои сообщения
Вы не можете голосовать в опросах
Вы не можете прикреплять файлы к сообщениям
Вы не можете скачивать файлы