Важное объявление!
У Нас Все раздачи мультитрекерные, при нуле пиров в релизах, можете смело вставать на закачку!
 
Автор Сообщение

HUNTER

Стаж:
4 года 4 месяца
Сообщений:
56749

Репутация: 101

[+] [-]
Вне форума [Профиль] [ЛС]

-Отель «Мэриголд». Заселение продолжается
The Second Best Exotic Marigold Hotel
Страна: Великобритания, США
Студия: Blueprint Pictures
Жанр: драма, комедия
Год выпуска: 2015
Продолжительность: 02:02:40-Перевод: Профессиональный (полное дублирование) BD EUR
Оригинальная аудиодорожка: английская
Cубтитры: русские, украинские, английские
Режиссер: Джон Мэдден / John Madden
В ролях: Дев Патель, Мэгги Смит, Дэнни Махони, Дэвид Стрэтэйрн, Джуди Денч, Билл Найи, Селия Имри, Рональд Пикап, Диана Хардкэсл, Сабхраджоти Барат
Описание: Отель «Мэриголд» не был бы экзотическим, если бы не поселил двух незнакомых друг с другом людей в один номер; и он не стал бы лучшим, если бы из этого не произошло ничего хорошего.-
Сэмпл: скачать-Релиз от -
Автор рипа: Elheym
Качество: BDRip 720p (источник: / Blu-ray EUR [THE_SECOND_BEST_EXOTIC_MARIGOLD_HOTEL_HDCLUB] / 1080p)
Контейнер: MKV
Видео: 1280x536 (2.40:1), 23.976 fps, MPEG-4 AVC, ~7100 kbps avg, 0.432 bit/pixel
Аудио #1: Русский: DTS, 5.1, 48 kHz, ~768 Кбит/с | Профессиональный (полное дублирование) BD EUR |
Аудио #2: Английский: AC3, 5.1, 48 kHz, ~640 Кбит/с | Оригинал |
Субтитры: русские (полные х2, форсированные), украинские (полные х2), английские (полные х2, форсированные, SDH, SDH цветные)
Главы: Присутствуют, сохранены оригинальные

MediaInfo

Уникальный идентификатор : 222030565638747470422368938361923352706 (0xA709880FF1BA59D8B62E33232A0CB882)
Полное имя : The.Second.Best.Exotic.Marigold.Hotel.2015.720p.BluRay.Rus.Eng.-HQCLUB.mkv
Формат : Matroska
Версия формата : Version 2
Размер файла : 7,28 Гбайт
Продолжительность : 2 ч. 2 м.
Общий поток : 8501 Кбит/сек
Название фильма : Отель «Мэриголд». Заселение продолжается / The Second Best Exotic Marigold Hotel (2015) BDRip 720p by Elheym [HQCLUB]
Дата кодирования : UTC 2015-07-24 17:39:41
Программа кодирования : mkvmerge v5.2.0 ('I can't explain') built on Dec 18 2011 18:12:03
Библиотека кодирования : libebml v1.2.3 + libmatroska v1.3.0
Attachements : Cover.jpg
Видео
Идентификатор : 1
Формат : AVC
Формат/Информация : Advanced Video Codec
Профиль формата : High@L4.1
Параметр CABAC формата : Да
Параметр ReFrames формата : 11 кадров
Идентификатор кодека : V_MPEG4/ISO/AVC
Продолжительность : 2 ч. 2 м.
Битрейт : 7100 Кбит/сек
Ширина : 1280 пикселей
Высота : 536 пикселей
Соотношение сторон : 2,40:1
Режим частоты кадров : Постоянный
Частота кадров : 23,976 кадра/сек
Цветовое пространство : YUV
Субдискретизация насыщенности : 4:2:0
Битовая глубина : 8 бит
Тип развёртки : Прогрессивная
Бит/(Пиксели*Кадры) : 0.432
Размер потока : 5,93 Гбайт (81%)
Заголовок : Отель «Мэриголд». Заселение продолжается / The Second Best Exotic Marigold Hotel (2015) BDRip 720p by Elheym [HQCLUB]
Библиотека кодирования : x264 core 146 r0+2586 e393126 t_mod_Custom [8-bit@all X86_64]
Настройки программы : cabac=1 / ref=11 / deblock=1:-2:-2 / analyse=0x3:0x113 / me=umh / subme=11 / psy=1 / fade_compensate=0.00 / psy_rd=1.15:0.05 / mixed_ref=1 / me_range=32 / chroma_me=1 / trellis=2 / 8x8dct=1 / cqm=0 / deadzone=21,11 / fast_pskip=0 / chroma_qp_offset=-3 / threads=6 / lookahead_threads=2 / sliced_threads=0 / nr=0 / decimate=0 / interlaced=0 / bluray_compat=0 / constrained_intra=0 / fgo=0 / bframes=11 / b_pyramid=2 / b_adapt=2 / b_bias=0 / direct=3 / weightb=1 / open_gop=0 / weightp=2 / keyint=240 / keyint_min=23 / scenecut=40 / intra_refresh=0 / rc_lookahead=80 / rc=2pass / mbtree=0 / bitrate=7100 / ratetol=1.0 / qcomp=0.80 / qpmin=0:0:0 / qpmax=69:69:69 / qpstep=4 / cplxblur=20.0 / qblur=0.5 / vbv_maxrate=50000 / vbv_bufsize=62500 / nal_hrd=none / filler=0 / ip_ratio=1.40 / pb_ratio=1.30 / aq=2:0.50 / aq-sensitivity=15.00 / aq-factor=1.00:1.00:1.00 / aq2=0 / aq3=0 / zones=167437,176472,b=0.22
Язык : English
Default : Да
Forced : Нет
Аудио #1
Идентификатор : 2
Формат : DTS
Формат/Информация : Digital Theater Systems
Режим : 16
Параметр Endianness формата : Big
Идентификатор кодека : A_DTS
Продолжительность : 2 ч. 2 м.
Вид битрейта : Постоянный
Битрейт : 768 Кбит/сек
Каналы : 6 каналов
Расположение каналов : Front: L C R, Side: L R, LFE
Частота : 48,0 КГц
Битовая глубина : 24 бит
Метод сжатия : С потерями
Размер потока : 674 Мбайт (9%)
Заголовок : DTS 5.1 @ 768 kbps - Dub, BD EUR
Язык : Russian
Default : Нет
Forced : Нет
Аудио #2
Идентификатор : 3
Формат : AC-3
Формат/Информация : Audio Coding 3
Расширение режима : CM (complete main)
Параметр Endianness формата : Big
Идентификатор кодека : A_AC3
Продолжительность : 2 ч. 2 м.
Вид битрейта : Постоянный
Битрейт : 640 Кбит/сек
Каналы : 6 каналов
Расположение каналов : Front: L C R, Side: L R, LFE
Частота : 48,0 КГц
Метод сжатия : С потерями
Размер потока : 562 Мбайт (8%)
Заголовок : АС3 5.1 @ 640 kbps - Original
Язык : English
Default : Нет
Forced : Нет
Текст #1
Идентификатор : 4
Формат : UTF-8
Идентификатор кодека : S_TEXT/UTF8
Идентификатор кодека/Информация : UTF-8 Plain Text
Заголовок : Full, BD
Язык : Russian
Default : Нет
Forced : Нет
Текст #2
Идентификатор : 5
Формат : UTF-8
Идентификатор кодека : S_TEXT/UTF8
Идентификатор кодека/Информация : UTF-8 Plain Text
Заголовок : Full, iTunes
Язык : Russian
Default : Нет
Forced : Нет
Текст #3
Идентификатор : 6
Формат : UTF-8
Идентификатор кодека : S_TEXT/UTF8
Идентификатор кодека/Информация : UTF-8 Plain Text
Заголовок : Forced, iTunes
Язык : Russian
Default : Да
Forced : Нет
Текст #4
Идентификатор : 7
Формат : UTF-8
Идентификатор кодека : S_TEXT/UTF8
Идентификатор кодека/Информация : UTF-8 Plain Text
Заголовок : Full, BD
Язык : Ukrainian
Default : Нет
Forced : Нет
Текст #5
Идентификатор : 8
Формат : UTF-8
Идентификатор кодека : S_TEXT/UTF8
Идентификатор кодека/Информация : UTF-8 Plain Text
Заголовок : Full, iTunes
Язык : Ukrainian
Default : Нет
Forced : Нет
Текст #6
Идентификатор : 9
Формат : UTF-8
Идентификатор кодека : S_TEXT/UTF8
Идентификатор кодека/Информация : UTF-8 Plain Text
Заголовок : Full, BD
Язык : English
Default : Нет
Forced : Нет
Текст #7
Идентификатор : 10
Формат : UTF-8
Идентификатор кодека : S_TEXT/UTF8
Идентификатор кодека/Информация : UTF-8 Plain Text
Заголовок : Full, iTunes
Язык : English
Default : Нет
Forced : Нет
Текст #8
Идентификатор : 11
Формат : UTF-8
Идентификатор кодека : S_TEXT/UTF8
Идентификатор кодека/Информация : UTF-8 Plain Text
Заголовок : Forced, iTunes
Язык : English
Default : Нет
Forced : Нет
Текст #9
Идентификатор : 12
Формат : UTF-8
Идентификатор кодека : S_TEXT/UTF8
Идентификатор кодека/Информация : UTF-8 Plain Text
Заголовок : SDH
Язык : English
Default : Нет
Forced : Нет
Текст #10
Идентификатор : 13
Формат : UTF-8
Идентификатор кодека : S_TEXT/UTF8
Идентификатор кодека/Информация : UTF-8 Plain Text
Заголовок : SDH Colored
Язык : English
Default : Нет
Forced : Нет
Меню
00:00:00.000 : :Chapter 01
00:04:14.337 : :Chapter 03
00:09:35.866 : :Chapter 05
00:15:14.955 : :Chapter 07
00:19:20.659 : :Chapter 09
00:23:01.797 : :Chapter 11
00:28:20.031 : :Chapter 13
00:32:28.696 : :Chapter 15
00:36:00.783 : :Chapter 17
00:39:55.101 : :Chapter 19
00:44:39.093 : :Chapter 21
00:49:53.407 : :Chapter 23
00:53:55.732 : :Chapter 25
00:58:33.635 : :Chapter 27
01:02:55.271 : :Chapter 29
01:05:19.206 : :Chapter 31
01:10:42.488 : :Chapter 33
01:14:29.882 : :Chapter 35
01:17:48.372 : :Chapter 37
01:21:25.171 : :Chapter 39
01:26:55.627 : :Chapter 41
01:30:52.196 : :Chapter 43
01:35:17.670 : :Chapter 45
01:38:34.742 : :Chapter 47
01:44:33.976 : :Chapter 49
01:47:40.120 : :Chapter 51
01:52:02.924 : :Chapter 53
01:56:27.981 : :Chapter 55
02:02:40.144 : :Chapter 56

x264 log

x264 [info]: frame I:1370 Avg QP:13.53 size:168199
x264 [info]: frame P:38390 Avg QP:16.02 size: 69045
x264 [info]: frame B:136713 Avg QP:17.96 size: 26638
x264 [info]: consecutive B-frames: 2.0% 2.2% 7.3% 24.2% 17.5% 37.8% 4.6% 1.4% 1.0% 0.4% 0.5% 1.0%
x264 [info]: ref P L0: 39.4% 11.3% 19.2% 6.9% 6.6% 3.9% 4.1% 2.5% 2.5% 1.6% 1.9% 0.2% 0.0%
x264 [info]: ref B L0: 68.6% 13.5% 6.2% 3.6% 2.4% 2.1% 1.5% 1.2% 0.6% 0.3%
x264 [info]: ref B L1: 92.4% 7.6%

Скриншоты

Сравнения с исходником

Источник- -Рип-

_________________
Показать сообщения:    

Текущее время: Сегодня 21:41

Часовой пояс: GMT



Вы не можете начинать темы
Вы не можете отвечать на сообщения
Вы не можете редактировать свои сообщения
Вы не можете удалять свои сообщения
Вы не можете голосовать в опросах
Вы не можете прикреплять файлы к сообщениям
Вы не можете скачивать файлы