Важное объявление!
У Нас Все раздачи мультитрекерные, при нуле пиров в релизах, можете смело вставать на закачку!
 
Автор Сообщение

HUNTER

Стаж:
4 года 4 месяца
Сообщений:
56839

Репутация: 101

[+] [-]
Вне форума [Профиль] [ЛС]

Отдыхай, Скуби-Ду! / Chill Out, Scooby-Doo!-
Страна: США
Жанр: мультфильм, комедия, криминал, детектив, семейный
Год выпуска: 2007
Продолжительность: 01:12:47
Перевод: Профессиональный (полное дублирование)
Субтитры: Нет-Режиссер: Джо Сичта / Joe Sichta-Описание: Парижские каникулы не сложились, когда Скуби-Ду и Шэгги упустили свой рейс и оказались в экстремальной экспедиции почти на другом конце света. Путешествие, которое должно было быть прекрасным отдыхом в Городе Огней, обернулось ужасом в Гималаях, когда неразлучная парочка друзей встретилась лицом к лицу с Ужасным Снежным Монстром! Похоже, чудовище распространяет леденящий ужас. Друзья удирают через древние монастыри, пробираются через подземные пещеры, спасаются от лавин и пытаются разгадать Загадки Горы Эверест до того, как страшное чудовище заморозит их навсегда!-Рейтинг:
-Мировая премьера: 4 сентября 2007
Релиз на DVD: 15 июня 2009 «Юниверсал Пикчерс Рус»-Релиз: -Семпл-Качество: WEB-DLRip [Chill.Out.Scooby-Doo.2007.720p.WEB-DL.Rus.Eng.HDCLUB]
Формат: AVI
Видео: 656x368 (1.78:1), 23.976 fps, XviD build 65 ~1292 kbps avg, 0.22 bit/pixel
Аудио: 48 kHz, MPEG Layer 3, 2 ch, ~128.00 kbps avg
Субтитры: Отсутствуют
-

MI

Format : AVIFormat/Info : Audio Video InterleaveFile size : 744 MiBDuration : 1h 12mnOverall bit rate : 1 430 KbpsWriting application : VirtualDubMod 1.5.10.3 | www.virtualdub-fr.org || (build 2550/release)Writing library : VirtualDubMod build 2550/release
VideoID : 0Format : MPEG-4 VisualFormat profile : Advanced Simple@L5Format settings, BVOP : 2Format settings, QPel : NoFormat settings, GMC : No warppointsFormat settings, Matrix : CustomCodec ID : XVIDCodec ID/Hint : XviDDuration : 1h 12mnBit rate : 1 293 KbpsWidth : 656 pixelsHeight : 368 pixelsDisplay aspect ratio : 16:9Frame rate : 23.976 fpsColor space : YUVChroma subsampling : 4:2:0Bit depth : 8 bitsScan type : ProgressiveCompression mode : LossyBits/(Pixel*Frame) : 0.223Stream size : 673 MiB (90%)Writing library : XviD 65
AudioID : 1Format : MPEG AudioFormat version : Version 1Format profile : Layer 3Codec ID : 55Codec ID/Hint : MP3Duration : 1h 12mnBit rate mode : ConstantBit rate : 128 KbpsChannel count : 2 channelsSampling rate : 48.0 KHzCompression mode : LossyStream size : 66.6 MiB (9%)Alignment : Aligned on interleavesInterleave, duration : 42 ms (1.00 video frame)Interleave, preload duration : 504 msWriting library : LAME3.99rEncoding settings : -m s -V 4 -q 2 -lowpass 17 -b 128
Все раздачи с полнометражными мультфильмами Скуби-Ду!

_________________
Показать сообщения:    

Текущее время: Сегодня 22:49

Часовой пояс: GMT



Вы не можете начинать темы
Вы не можете отвечать на сообщения
Вы не можете редактировать свои сообщения
Вы не можете удалять свои сообщения
Вы не можете голосовать в опросах
Вы не можете прикреплять файлы к сообщениям
Вы не можете скачивать файлы