Важное объявление!
У Нас Все раздачи мультитрекерные, при нуле пиров в релизах, можете смело вставать на закачку!
 
Автор Сообщение

димитри37

Стаж:
3 года 8 месяцев
Сообщений:
1237

Репутация: 127

[+] [-]
Вне форума [Профиль] [ЛС]

Отдых на грани нервного срыва / Ni a vendre ni a loue
Год выпуска: 2011
Страна: Франция
Жанр: Комедия
Продолжительность: 01:12:49
Перевод: Не требуется
Cубтитры: нет
Оригинальная аудиодорожка: французский
Режиссер: Паскаль Рабатэ / Pascal Rabate
В ролях: Жак Гамблен, Мария ди Медейруш, Франсуа Дамиенс, Франсуа Морель, Доминик Пинон, Арсен Моска, Мари Кремер, Шанталь Нойвирт, Катрин Осмален, Шарль Шнайдер
Описание: Французы выдвигаются на побережье. Горожане и влюбленные панки, пенсионеры, супружеские пары, тайные любовники, семья скаутов и даже садомазохист-неудачник намерены получить заслуженный отдых и немного развлечься в палатке, в номере безымянного отеля, в автотрейлере, домике размером с собачью будку. Они все едут на море — на машине для гольфа, в электричке и спортивных автомобилях с открытым верхом. Их случайные и спланированные встречи, измены, влюбленности, семейная рутина и другие курортные приключения превратятся в фейерверк.

Доп. информация: Второй фильм Паскаля Рабате, известного французского художника, автора популярных комиксов. Фильм получил приз «За лучшую режиссуру» на кинофестивале в Карловых Варах.
Качество видео: DVDRip
Формат видео: AVI
Видео: 640x272 (2.35:1), 25.000 fps, XviD 1 200 Kbps avg, 0.276 bit/pixel
Аудио: MPEG Audio Layer 3 48000Hz, 2 ch stereo, ~133.00 kbps avg

MediaInfo

General
Format : AVI
Format/Info : Audio Video Interleave
File size : 700 MiB
Duration : 1h 12mn
Overall bit rate : 1 345 Kbps
Writing application : VirtualDubMod 1.5.10.2 (build 2540/release)
Writing library : VirtualDubMod build 2540/release
Video
ID : 0
Format : MPEG-4 Visual
Format profile : Advanced Simple@L5
Format settings, BVOP : 2
Format settings, QPel : No
Format settings, GMC : No warppoints
Format settings, Matrix : Default (H.263)
Codec ID : XVID
Codec ID/Hint : XviD
Duration : 1h 12mn
Bit rate : 1 202 Kbps
Width : 640 pixels
Height : 272 pixels
Display aspect ratio : 2.35:1
Frame rate : 25.000 fps
Color space : YUV
Chroma subsampling : 4:2:0
Bit depth : 8 bits
Scan type : Progressive
Compression mode : Lossy
Bits/(Pixel*Frame) : 0.276
Stream size : 626 MiB (89%)
Writing library : XviD 1.1.2 (UTC 2006-11-01)
Audio
ID : 1
Format : MPEG Audio
Format version : Version 1
Format profile : Layer 3
Mode : Joint stereo
Mode extension : MS Stereo
Codec ID : 55
Codec ID/Hint : MP3
Duration : 1h 12mn
Bit rate mode : Variable
Bit rate : 130 Kbps
Nominal bit rate : 137 Kbps
Channel(s) : 2 channels
Sampling rate : 48.0 KHz
Compression mode : Lossy
Stream size : 67.8 MiB (10%)
Alignment : Aligned on interleaves
Interleave, duration : 24 ms (0.60 video frame)
Interleave, preload duration : 492 ms
Writing library : LAME3.97
Encoding settings : -m j -V 4 -q 3 -lowpass 17 --abr 137

Скриншоты


Показать сообщения:    

Текущее время: Сегодня 14:36

Часовой пояс: GMT



Вы не можете начинать темы
Вы не можете отвечать на сообщения
Вы не можете редактировать свои сообщения
Вы не можете удалять свои сообщения
Вы не можете голосовать в опросах
Вы не можете прикреплять файлы к сообщениям
Вы не можете скачивать файлы