Важное объявление!
У Нас Все раздачи мультитрекерные, при нуле пиров в релизах, можете смело вставать на закачку!
 
Автор Сообщение

димитри37

Стаж:
3 года 8 месяцев
Сообщений:
1237

Репутация: 127

[+] [-]
Вне форума [Профиль] [ЛС]

Отголоски лета / Отзвуки лета / Echoes of a Summer
Страна: США, Канада
Жанр: драма
Год выпуска: 1976
Продолжительность: 01:35:12
Перевод: Профессиональный (двухголосый закадровый)
Cубтитры: нет
Оригинальная дорожка: Английский
Режиссер: Дон Тейлор / Don Taylor
В ролях: Ричард Харрис, Луис Неттлтон, Джеральдин Фицджералд, Уильям Уиндом, Джоди Фостер, Брэд Сэвадж, Роберт Л. Джозеф...
Описание: Одиннадцатилетняя Дидре больна неизлечимой болезнью сердца. В течение последних двух лет, ее родители, Юджин и Рут, консультировались у разных кардиологов, но безуспешно. Потеряв надежду на выздоровление дочери, они переезжают в Канаду, чтобы Дидре провела свои последние дни так хорошо как это возможно.
На новом месте, у Дидре внезапно случается острый сердечный приступ и ее смерть обещает наступить гораздо раньше, чем предполагалось ранее. Это побуждает Дидре и ее девятилетнего друга Филлипа отпраздновать приближающийся двенадцатый день рождения девочки как день радости и веселья.

Качество видео: HDTVRip [Исходник 1080i]
Формат видео: AVI
Видео: 720x384 (1.88:1), 25 fps, XviD build 50 ~1990 kbps avg, 0.29 bit/pixel
Аудио: 48 kHz, AC3 Dolby Digital, 2/0 (L,R) ch, ~192 kbps

MediaInfo

Отголоски лета - Echoes of a Summer [by Edich2].avi
Format : AVI
Format/Info : Audio Video Interleave
File size : 1.46 GiB
Duration : 1h 35mn
Overall bit rate : 2 192 Kbps
Movie name : Отголоски лета - Echoes of a Summer [by Edich2]
Director : Rip by Ledy_X
Writing application : Nandub v1.0rc2
Copyright : Edich2
Comment : RuTracker.org
Video
ID : 0
Format : MPEG-4 Visual
Format profile : Advanced Simple@L5
Format settings, BVOP : 2
Format settings, QPel : No
Format settings, GMC : No warppoints
Format settings, Matrix : Default (MPEG)
Codec ID : DX50
Codec ID/Hint : DivX 5
Duration : 1h 35mn
Bit rate : 1 990 Kbps
Width : 720 pixels
Height : 384 pixels
Display aspect ratio : 1.85:1
Frame rate : 25.000 fps
Color space : YUV
Chroma subsampling : 4:2:0
Bit depth : 8 bits
Scan type : Progressive
Compression mode : Lossy
Bits/(Pixel*Frame) : 0.288
Stream size : 1.33 GiB (91%)
Writing library : XviD 1.2.1 (UTC 2008-12-04)
Audio
ID : 1
Format : AC-3
Format/Info : Audio Coding 3
Mode extension : CM (complete main)
Format settings, Endianness : Big
Codec ID : 2000
Duration : 1h 35mn
Bit rate mode : Constant
Bit rate : 192 Kbps
Channel(s) : 2 channels
Channel positions : Front: L R
Sampling rate : 48.0 KHz
Bit depth : 16 bits
Compression mode : Lossy
Delay relative to video : 528ms
Stream size : 131 MiB (9%)
Alignment : Split accross interleaves
Interleave, duration : 40 ms (1.00 video frame)
Interleave, preload duration : 500 ms

Скриншоты


-
Показать сообщения:    

Текущее время: Сегодня 09:02

Часовой пояс: GMT



Вы не можете начинать темы
Вы не можете отвечать на сообщения
Вы не можете редактировать свои сообщения
Вы не можете удалять свои сообщения
Вы не можете голосовать в опросах
Вы не можете прикреплять файлы к сообщениям
Вы не можете скачивать файлы