Важное объявление!
У Нас Все раздачи мультитрекерные, при нуле пиров в релизах, можете смело вставать на закачку!
 
Автор Сообщение

HUNTER

Стаж:
4 года 4 месяца
Сообщений:
56808

Репутация: 101

[+] [-]
Вне форума [Профиль] [ЛС]

От семи лет и выше / Семь и выше / Семь плюс / The Seven-Ups
Страна: США
Жанр: боевик, драма, криминал
Год выпуска: 1973
Продолжительность: 01:43:17
Перевод: Авторский (одноголосый закадровый) Алексей Михалев
Cубтитры: нет
Оригинальная аудиодорожка: английский
Режиссер: Филип Д'Антони / Philip D'Antoni
В ролях: Рой Шайдер /Roy Scheider/, Энтони Ло Бьянко /Anthony Lo Bianco/, Ларри Хэйнс /Larry Haines/, Билл Хикмэн /Bill Hickman/, Ричард Линч /Richard Lynch/, Виктор Арнольд /Victor Arnold/
Описание: Бадди Мануччи возглавляет группу крутых ребят, ведущих расследование похищений, организованных различными кланами мафии.

Доп. информация: За Михалева спасибо edich2
Качество видео: BDRip720
Формат видео: MKV
Видео кодек: H264
Аудио кодек: AC3
Видео: 1280х688 (1.85:1), 23,976 кадр/сек, 5287 Кбит/сек, 0.25 bit/pixel
Аудио 1: 48 kHz, AC3 Dolby Digital, 2/0 (L,R) ch, ~192 kbps - Михалев
Аудио 2: 48 kHz, AC3 Dolby Digital, 1/0 (C) ch, ~192 kbps - Английский

MediaInfo

Полное имя : Ot.semi.let.i.vyshi.1973.Dual.BDRip720.mkv
Формат : Matroska
Версия формата : Version 2
Размер файла : 4,09 Гбайт
Продолжительность : 1 ч. 43 м.
Общий поток : 5671 Кбит/сек
Дата кодирования : UTC 2013-02-25 03:58:05
Программа кодирования : mkvmerge v4.0.0 ('The Stars were mine') сборка от Jun 6 2010 16:18:42
Библиотека кодирования : libebml v1.0.0 + libmatroska v1.0.0
Видео
Идентификатор : 1
Формат : AVC
Формат/Информация : Advanced Video Codec
Профиль формата : High@L4.1
Параметр CABAC формата : Да
Параметр ReFrames формата : 5 кадров
Идентификатор кодека : V_MPEG4/ISO/AVC
Продолжительность : 1 ч. 43 м.
Битрейт : 5287 Кбит/сек
Ширина : 1280 пикселей
Высота : 688 пикселей
Соотношение сторон : 1,85:1
Режим частоты кадров : Постоянный
Частота кадров : 23,976 кадра/сек
Цветовое пространство : YUV
Субдискретизация насыщенности : 4:2:0
Битовая глубина : 8 бит
Тип развёртки : Прогрессивная
Бит/(Пиксели*Кадры) : 0.250
Размер потока : 3,73 Гбайт (91%)
Библиотека кодирования : x264 core 129 r2245 bc13772
Настройки программы : cabac=1 / ref=5 / deblock=1:0:0 / analyse=0x3:0x133 / me=umh / subme=7 / psy=1 / psy_rd=1.00:0.00 / mixed_ref=1 / me_range=16 / chroma_me=1 / trellis=1 / 8x8dct=1 / cqm=0 / deadzone=21,11 / fast_pskip=0 / chroma_qp_offset=-2 / threads=12 / lookahead_threads=2 / sliced_threads=0 / nr=0 / decimate=1 / interlaced=0 / bluray_compat=0 / constrained_intra=0 / bframes=3 / b_pyramid=2 / b_adapt=1 / b_bias=0 / direct=1 / weightb=1 / open_gop=0 / weightp=2 / keyint=240 / keyint_min=23 / scenecut=40 / intra_refresh=0 / rc_lookahead=40 / rc=2pass / mbtree=1 / bitrate=5287 / ratetol=1.0 / qcomp=0.60 / qpmin=10 / qpmax=69 / qpstep=4 / cplxblur=20.0 / qblur=0.5 / ip_ratio=1.40 / aq=1:1.00
Язык : English
Default : Нет
Forced : Нет
Аудио #1
Идентификатор : 2
Формат : AC-3
Формат/Информация : Audio Coding 3
Расширение режима : CM (complete main)
Параметр Endianness формата : Big
Идентификатор кодека : A_AC3
Продолжительность : 1 ч. 43 м.
Вид битрейта : Постоянный
Битрейт : 192 Кбит/сек
Каналы : 2 канала
Расположение каналов : Front: L R
Частота : 48,0 КГц
Битовая глубина : 16 бит
Метод сжатия : С потерями
Задержка видео : 24 мс.
Размер потока : 142 Мбайт (3%)
Заголовок : Mihalyev
Язык : Russian
Default : Да
Forced : Нет
Аудио #2
Идентификатор : 3
Формат : AC-3
Формат/Информация : Audio Coding 3
Расширение режима : CM (complete main)
Параметр Endianness формата : Big
Идентификатор кодека : A_AC3
Продолжительность : 1 ч. 43 м.
Вид битрейта : Постоянный
Битрейт : 192 Кбит/сек
Каналы : 1 канал
Расположение каналов : Front: C
Частота : 48,0 КГц
Битовая глубина : 16 бит
Метод сжатия : С потерями
Размер потока : 142 Мбайт (3%)
Заголовок : original
Язык : English
Default : Нет
Forced : Нет
Меню
00:00:00.000 : en:00:00:00.000
00:07:02.964 : en:00:07:02.964
00:11:34.360 : en:00:11:34.360
00:15:59.124 : en:00:15:59.124
00:25:10.342 : en:00:25:10.342
00:32:21.189 : en:00:32:21.189
00:41:00.624 : en:00:41:00.624
00:48:14.349 : en:00:48:14.349
00:53:55.065 : en:00:53:55.065
01:04:24.569 : en:01:04:24.569
01:11:17.022 : en:01:11:17.022
01:16:49.688 : en:01:16:49.688
01:21:14.536 : en:01:21:14.536
01:29:55.765 : en:01:29:55.765
01:38:56.555 : en:01:38:56.555
01:42:08.038 : en:01:42:08.038

Скриншоты


_________________
Показать сообщения:    

Текущее время: Сегодня 12:18

Часовой пояс: GMT



Вы не можете начинать темы
Вы не можете отвечать на сообщения
Вы не можете редактировать свои сообщения
Вы не можете удалять свои сообщения
Вы не можете голосовать в опросах
Вы не можете прикреплять файлы к сообщениям
Вы не можете скачивать файлы