Важное объявление!
У Нас Все раздачи мультитрекерные, при нуле пиров в релизах, можете смело вставать на закачку!
 
Автор Сообщение

HUNTER

Стаж:
4 года 4 месяца
Сообщений:
56822

Репутация: 101

[+] [-]
Вне форума [Профиль] [ЛС]

Осушить океан. Титаник / Drain the Ocean--
Дата/Год выпуска: 2015
Страна: США, National Geographic Television, Mallinson Sad
Жанр: Документальный, природа
Продолжительность: 00:43:59
Режиссер: Криспин Сэдлер
Перевод: Профессиональный одноголосый
Описание: С помощью виртуальной визуализации мы "осушим" место крушения "Титаника", чтобы раскрыть тайны гибели корабля, считавшегося непотопляемым.
Качество: IPTVRip
Формат: AVI
Видео: XviD, 1504 Кбит/с, 704x400
Аудио: MP3, 2 ch, 128 Кбит/с
Сэмпл

MediaInfo

ОбщееПолное имя : C:\Drain_the_Ocean.Titanic.aviФормат : AVIФормат/Информация : Audio Video InterleaveРазмер файла : 517 МбайтПродолжительность : 43 м.Общий поток : 1642 Кбит/секПрограмма кодирования : VirtualDubMod 1.5.10.3 | www.virtualdub-fr.org || (build 2550/release)Библиотека кодирования : VirtualDub build 35576/release
ВидеоИдентификатор : 0Формат : MPEG-4 VisualПрофиль формата : Advanced Simple@L5Параметр BVOP формата : 1Параметр QPel формата : НетПараметр GMC формата : Без точки переходаПараметр матрицы формата : ВыборочнаяИдентификатор кодека : XVIDИдентификатор кодека/Подсказка : XviDПродолжительность : 43 м.Битрейт : 1504 Кбит/секШирина : 704 пикселяВысота : 400 пикселейСоотношение сторон : 16:9Частота кадров : 25,000 кадров/секЦветовое пространство : YUVСубдискретизация насыщенности : 4:2:0Битовая глубина : 8 битТип развёртки : ПрогрессивнаяМетод сжатия : С потерямиБит/(Пиксели*Кадры) : 0.214Размер потока : 473 Мбайт (92%)Библиотека кодирования : XviD 1.2.1 (UTC 2008-12-04)
АудиоИдентификатор : 1Формат : MPEG AudioВерсия формата : Version 1Профиль формата : Layer 3Идентификатор кодека : 55Идентификатор кодека/Подсказка : MP3Продолжительность : 43 м.Вид битрейта : ПостоянныйБитрейт : 128 Кбит/секКаналы : 2 каналаЧастота : 48,0 КГцМетод сжатия : С потерямиРазмер потока : 40,3 Мбайт (8%)Выравнивание : Соединение по промежуткамПродолжительность промежутка : 40 мс. (1,00 видеокадр)Время предзагрузки промежутка : 504 мс.

Скриншоты


_________________
Показать сообщения:    

Текущее время: Сегодня 05:22

Часовой пояс: GMT



Вы не можете начинать темы
Вы не можете отвечать на сообщения
Вы не можете редактировать свои сообщения
Вы не можете удалять свои сообщения
Вы не можете голосовать в опросах
Вы не можете прикреплять файлы к сообщениям
Вы не можете скачивать файлы