Важное объявление!
У Нас Все раздачи мультитрекерные, при нуле пиров в релизах, можете смело вставать на закачку!
 
Автор Сообщение

HUNTER

Стаж:
4 года 4 месяца
Сообщений:
56829

Репутация: 101

[+] [-]
Вне форума [Профиль] [ЛС]

Остров сокровищ-Год выпуска: 1988
Страна: СССР
Жанр: Мультфильм
Продолжительность: 01:46:51
Режиссеры: Давид Черкасский
"Крупный план"- полная реставрация изображения и звука
Описание:
Мультипликационный фильм по мотивам одноименного романа английского писателя Р.Л.Стивенсона.
Современная версия старой истории о поиске сокровищ легендарного пирата Флинта. Славный мальчик Джимми Хокинс, отважный капитан Смоллетт, трусливый сквайр Трелони, коварные пираты и обаятельнейший доктор Ливси - эти герои не оставят вас равнодушными.
Фильм снят в манере совмещенных игровых эпизодов с рисованной мультипликацией.
Шхуна "Испаньола" бороздит морские просторы в поисках острова, на котором спрятаны легендарные сокровища капитана пиратов Флинта. На корабле зреет заговор. Разбойники во главе с одноногим Джоном Сильвером, кажется, близки к цели...
Состав:
Фильм 1-й — «Карта капитана Флинта» (47.33 мин)
Фильм 2-й — «Сокровища капитана Флинта» (59.18 мин)
Релиз:
Качество: DVDRip-AVC
Контейнер: MKV
Видео: 718x574 (4:3) @ 766x574, 25.000 fps, AVC, ~2325 Kbps, 0.226 bits/pixel
Аудио: Russian, 48.0 KHz, AC3, 6 ch, 448 Kbps

Скриншоты

Фильм 1-й

Фильм 2-й

Тех.данные

General
Unique ID : 174799206426896684164010596598907658844 (0x83811A436BDF87FA92B255F61147E25C)
Complete name : C:\torrent\Owner\Остров сокровищ.mkv
Format : Matroska
Format version : Version 2
File size : 2.11 GiB
Duration : 1h 46mn
Overall bit rate : 2 830 Kbps
Encoded date : UTC 2011-11-15 18:47:41
Writing application : mkvmerge v5.0.1 ('Es ist Sommer') built on Oct 9 2011 11:55:43
Writing library : libebml v1.2.2 + libmatroska v1.3.0
Video
ID : 1
Format : AVC
Format/Info : Advanced Video Codec
Format profile : High@L4.0
Format settings, CABAC : Yes
Format settings, ReFrames : 16 frames
Format settings, GOP : M=1, N=9
Codec ID : V_MPEG4/ISO/AVC
Duration : 1h 46mn
Bit rate : 2 325 Kbps
Width : 718 pixels
Height : 574 pixels
Display aspect ratio : 4:3
Frame rate : 25.000 fps
Color space : YUV
Chroma subsampling : 4:2:0
Bit depth : 8 bits
Scan type : Progressive
Bits/(Pixel*Frame) : 0.226
Stream size : 1.74 GiB (82%)
Title : Nyc-2008 / rutracker.org / RG Multfilmy
Writing library : x264 core 119 r2106kMod 07efeb4
Encoding settings : cabac=1 / ref=16 / deblock=1:0:0 / analyse=0x3:0x113 / me=umh / subme=10 / psy=1 / fade_compensate=0.00 / psy_rd=1.00:0.10 / mixed_ref=1 / me_range=24 / chroma_me=1 / trellis=2 / 8x8dct=1 / cqm=0 / deadzone=21,11 / fast_pskip=0 / chroma_qp_offset=-3 / threads=6 / sliced_threads=0 / nr=0 / decimate=1 / interlaced=0 / bluray_compat=0 / constrained_intra=0 / bframes=13 / b_pyramid=2 / b_adapt=2 / b_bias=0 / direct=1 / weightb=1 / open_gop=0 / weightp=2 / keyint=250 / keyint_min=25 / scenecut=40 / intra_refresh=0 / rc_lookahead=60 / rc=crf / mbtree=1 / crf=18.4900 / qcomp=0.60 / qpmin=0 / qpmax=69 / qpstep=4 / ip_ratio=1.40 / aq=2:1.00
Language : Russian
Audio
ID : 2
Format : AC-3
Format/Info : Audio Coding 3
Mode extension : CM (complete main)
Codec ID : A_AC3
Duration : 1h 46mn
Bit rate mode : Constant
Bit rate : 448 Kbps
Channel(s) : 6 channels
Channel positions : Front: L C R, Side: L R, LFE
Sampling rate : 48.0 KHz
Bit depth : 16 bits
Compression mode : Lossy
Delay relative to video : 294ms
Stream size : 342 MiB (16%)
Language : Russian
Menu
00:00:00.000 : ru:Первая серия
00:47:33.100 : ru:Вторая серия

_________________
Показать сообщения:    

Текущее время: Сегодня 09:40

Часовой пояс: GMT



Вы не можете начинать темы
Вы не можете отвечать на сообщения
Вы не можете редактировать свои сообщения
Вы не можете удалять свои сообщения
Вы не можете голосовать в опросах
Вы не можете прикреплять файлы к сообщениям
Вы не можете скачивать файлы