Важное объявление!
У Нас Все раздачи мультитрекерные, при нуле пиров в релизах, можете смело вставать на закачку!
 
Автор Сообщение

HUNTER

Стаж:
4 года 4 месяца
Сообщений:
56829

Репутация: 101

[+] [-]
Вне форума [Профиль] [ЛС]

Остров сокровищ
Страна: СССР, Киевнаучфильм
Жанр: мультфильм, приключения
Продолжительность: 00:47:31 + 00:59:12
Год выпуска: 1986-1988
Русские субтитры: есть
Режиссер: Давид Черкасский
Роли озвучивали: Владимир Заднепровский, Евгений Паперный, Армен Джигарханян, Юрий Яковлев, Валерий Бессараб, Борис Вознюк, Георгий Кишко, Валерий Чигляев, Виктор Андриенко
Описание: Мультипликационный фильм по мотивам одноименного романа английского писателя Р.Л.Стивенсона.
Современная версия старой истории о поиске сокровищ легендарного пирата Флинта. Славный мальчик Джимми Хокинс, отважный капитан Смоллетт, трусливый сквайр Трелони, коварные пираты и обаятельнейший доктор Ливси - эти герои не оставят вас равнодушными.
Фильм снят в манере совмещенных игровых эпизодов с рисованной мультипликацией.
Доп. информация: Без реставрации Исх. DVD - Издание "Українська ДіВіДі Компанія / JRCvideo", 2005 г.
Релиз группы:
Качество: DVDRip
Формат: MKV
Видео: 700x572, DAR=4:3, 25 fps, H264, ~2313 Kbps avg
Аудио: Русский, 48 kHz, AC3 Dolby Digital, 2/0 (L,R) ch, ~224 kbps
Субтитры: русские, deutsch, english
Перемотка по главам и сериям: Есть
Благодарности: За подготовку видео в формате H264 огромное спасибо DFCbit, за помощь в подготовке релиза особая благодарность xfiles

MediaInfo

General
Complete name : Ostrov_Sokrovisch.H264.mkv
Format : Matroska
File size : 1.93 GiB
Duration : 1h 46mn
Overall bit rate : 2 588 Kbps
Encoded date : UTC 2011-02-09 10:25:33
Writing application : mkvmerge v4.5.0 ('Speed of Light') зібрано Feb 1 2011 02:10:32
Writing library : libebml v1.2.0 + libmatroska v1.1.0
Video
ID : 1
Format : AVC
Format/Info : Advanced Video Codec
Format profile : High@L3.1
Format settings, CABAC : Yes
Format settings, ReFrames : 9 frames
Codec ID : V_MPEG4/ISO/AVC
Duration : 1h 46mn
Bit rate : 2 313 Kbps
Width : 700 pixels
Height : 572 pixels
Display aspect ratio : 4:3
Original display aspect ratio : 4:3
Frame rate : 25.000 fps
Color space : YUV
Chroma subsampling : 4:2:0
Bit depth : 8 bits
Scan type : Progressive
Bits/(Pixel*Frame) : 0.231
Stream size : 1.72 GiB (89%)
Writing library : x264 core 113 r1884kMod 7313bb5
Encoding settings : cabac=1 / ref=9 / deblock=1:-1:-1 / analyse=0x3:0x113 / me=umh / subme=10 / psy=1 / fade_compensate=0.00 / psy_rd=1.00:0.10 / mixed_ref=1 / me_range=24 / chroma_me=1 / trellis=2 / 8x8dct=1 / cqm=0 / deadzone=21,11 / fast_pskip=0 / chroma_qp_offset=-3 / threads=6 / sliced_threads=0 / nr=0 / decimate=1 / interlaced=0 / constrained_intra=0 / bframes=6 / b_pyramid=2 / b_adapt=2 / b_bias=0 / direct=1 / weightb=1 / open_gop=0 / weightp=2 / keyint=250 / keyint_min=25 / scenecut=40 / intra_refresh=0 / rc_lookahead=60 / rc=crf / mbtree=1 / crf=18.0000 / qcomp=0.60 / qpmin=0 / qpmax=69 / qpstep=4 / ip_ratio=1.40 / aq=2:1.00
Language : Russian
Audio
ID : 2
Format : AC-3
Format/Info : Audio Coding 3
Mode extension : CM (complete main)
Codec ID : A_AC3
Duration : 1h 46mn
Bit rate mode : Constant
Bit rate : 224 Kbps
Channel(s) : 2 channels
Channel positions : Front: L R
Sampling rate : 48.0 KHz
Bit depth : 16 bits
Stream size : 171 MiB (9%)
Language : Russian
Text #1
ID : 3
Format : UTF-8
Codec ID : S_TEXT/UTF8
Codec ID/Info : UTF-8 Plain Text
Language : Russian
Text #2
ID : 4
Format : UTF-8
Codec ID : S_TEXT/UTF8
Codec ID/Info : UTF-8 Plain Text
Language : English
Text #3
ID : 5
Format : UTF-8
Codec ID : S_TEXT/UTF8
Codec ID/Info : UTF-8 Plain Text
Language : German
Menu
00:00:00.000 : :Chapter 1-1
00:07:42.000 : :Chapter 1-2
00:16:36.000 : :Chapter 1-3
00:24:22.000 : :Chapter 1-4
00:40:19.000 : :Chapter 1-5
00:47:32.000 : :Chapter 2-1
00:57:41.000 : :Chapter 2-2
01:07:55.000 : :Chapter 2-3
01:19:32.000 : :Chapter 2-4
01:37:43.000 : :Chapter 2-5

Скриншоты

1-я серия

2-я серия

Отличие от реставрации КП

1) Изображение неизуродованное реставраторами. Абсолютно другое по цвету. Сравнение DVD изданий вот тут http://vobzor.com/page.php?id=153
2) Меньше артефактов MPEG2 на исходном DVD
3) Оригинальный звук, не задранный по частотам и не раздутый в 5.1

_________________
Показать сообщения:    

Текущее время: Сегодня 16:54

Часовой пояс: GMT



Вы не можете начинать темы
Вы не можете отвечать на сообщения
Вы не можете редактировать свои сообщения
Вы не можете удалять свои сообщения
Вы не можете голосовать в опросах
Вы не можете прикреплять файлы к сообщениям
Вы не можете скачивать файлы