Важное объявление!
У Нас Все раздачи мультитрекерные, при нуле пиров в релизах, можете смело вставать на закачку!
 
Автор Сообщение

HUNTER

Стаж:
4 года 4 месяца
Сообщений:
56765

Репутация: 101

[+] [-]
Вне форума [Профиль] [ЛС]

Остров сокровищ / The Treasure Island
Страна: Австралия
Жанр: Семейный, приключения
Продолжительность: 0:49:05
Год выпуска: 1988
Перевод: Профессиональный (многоголосый закадровый)
Русские субтитры: нет
Режиссёр: Уорвик Гилберт / Warwick Gilbert
Роли озвучивали: Росс Хиггинс, Тодд Бойс, Маргарет Кристенсен, Уоллас Итон, Тим Эллиотт, Филлип Хинтон, Пол Джонстоун, Хью Кияс-Бёрн,-Описание: Мальчик Джим Хокинс, находит карту сокровищ в бумагах старого морского пирата, капитана Билли Бонса. Доктор Ливси, Сквайр Трелонн и Джим снаряжают корабль, чтобы отправиться на поиски сокровищ. Сами того не зная, они нанимают команду пиратов под предводительством Джона Сильвера, который хочет завладеть всеми сокровищами. Пираты пытаются помешать нашим героям. Ситуация становится очень опасной, но в конечном счете Джим и его друзья побеждают.- | Совместный релиз: и -Качество: DVDRip (Сэмпл)
Формат: AVI
Видео: 688x496 (1.72:1), 25 fps, XviD ~1723 kbps, 0.20 bit/pixel
Аудио 1: 48 kHz, AC3, 2/0 (L,R) ch, ~192 kbps Русский
Аудио 2: 48 kHz, AC3, 2/0 (L,R) ch, ~192 kbps Немецкий

Отчет MI

GeneralComplete name : Treasure Island.1987.DVDRip_Olu6ka.aviFormat : AVIFormat/Info : Audio Video InterleaveFile size : 745 MiBDuration : 49mn 5sOverall bit rate : 2 122 KbpsWriting application : VirtualDubModRus 1.5.10.2 (build 2542/release)Writing library : VirtualDubMod build 2542/release
VideoID : 0Format : MPEG-4 VisualFormat profile : Advanced Simple@L5Format settings, BVOP : 1Format settings, QPel : NoFormat settings, GMC : No warppointsFormat settings, Matrix : CustomCodec ID : XVIDCodec ID/Hint : XviDDuration : 49mn 5sBit rate : 1 724 KbpsWidth : 688 pixelsHeight : 496 pixelsDisplay aspect ratio : 1.387Frame rate : 25.000 fpsColor space : YUVChroma subsampling : 4:2:0Bit depth : 8 bitsScan type : ProgressiveCompression mode : LossyBits/(Pixel*Frame) : 0.202Stream size : 605 MiB (81%)Writing library : XviD 73
Audio #1ID : 1Format : AC-3Format/Info : Audio Coding 3Mode extension : CM (complete main)Format settings, Endianness : BigCodec ID : 2000Duration : 49mn 5sBit rate mode : ConstantBit rate : 192 KbpsChannel count : 2 channelsChannel positions : Front: L RSampling rate : 48.0 KHzBit depth : 16 bitsCompression mode : LossyStream size : 67.4 MiB (9%)Alignment : Split accross interleavesInterleave, duration : 40 ms (1.00 video frame)Interleave, preload duration : 500 ms
Audio #2ID : 2Format : AC-3Format/Info : Audio Coding 3Mode extension : CM (complete main)Format settings, Endianness : BigCodec ID : 2000Duration : 49mn 5sBit rate mode : ConstantBit rate : 192 KbpsChannel count : 2 channelsChannel positions : Front: L RSampling rate : 48.0 KHzBit depth : 16 bitsCompression mode : LossyStream size : 67.4 MiB (9%)Alignment : Aligned on interleavesInterleave, duration : 40 ms (1.00 video frame)Interleave, preload duration : 512 ms
Спасибо grandmajor за исходник!

_________________
Показать сообщения:    

Текущее время: Сегодня 01:48

Часовой пояс: GMT



Вы не можете начинать темы
Вы не можете отвечать на сообщения
Вы не можете редактировать свои сообщения
Вы не можете удалять свои сообщения
Вы не можете голосовать в опросах
Вы не можете прикреплять файлы к сообщениям
Вы не можете скачивать файлы