Важное объявление!
У Нас Все раздачи мультитрекерные, при нуле пиров в релизах, можете смело вставать на закачку!
 
Автор Сообщение

HUNTER

Стаж:
4 года 4 месяца
Сообщений:
56853

Репутация: 101

[+] [-]
Вне форума [Профиль] [ЛС]

Остров
Год выпуска: 2006
Страна: РФ
Жанр: драма
Продолжительность: 1:54:27
Режиссер: Павел Лунгин
В ролях: Пётр Мамонов, Виктор Сухоруков, Дмитрий Дюжев, Юрий Кузнецов, Вика Исакова, Нина Усатова, Ольга Демидова, Алексей Зеленский, Сергей Бурунов и др.
Описание: 1942 год. Небольшой буксир северного флота захватывают немцы. Команда судна – два человека, шкипер Тихон и боцман Толя. Во имя спасения собственной жизни второй соглашается убить первого. Немцы слово держат, оставляя предателя на заброшенном острове. Спустя 34 года на этот остров со всей страны едут люди, прослышавшие о чудотворце отце Анатолии. Он и вправду способен лечить, предсказывать будущее, изгонять бесов. Аскетический образ жизни (спит на угле, мало ест, ходит в обносках) делает о. Анатолия в глазах прихожан и монахов едва ли не святым. Только у самого тяжело на душе, жить, дышать нестерпимо. Убитый товарищ Тихон стоит перед глазами…
Качество: BDRip
Формат: MKV
Видео кодек: H.264
Аудио кодек: AC3
Видео: 1280x544, 5021 Кбит/сек, 23,976 кадр/сек, AVC x264 2.35:1, 0.301 bit/pixel
Аудио: AC-3, 448 Кбит/сек, 2 канала(ов), 48,0 КГц

Скриншоты





MediaInfo

Общее
Уникальный идентификатор : 247948106868377218674339491657719575876 (0xBA891180832BD61284F9D246B11D7544)
Полное имя : D:\Ostrov.2006.x264.BDRip720p.5021.mkv
Формат : Matroska
Размер файла : 4,37 Гбайт
Продолжительность : 1 ч. 54 м.
Общий поток : 5470 Кбит/сек
Дата кодирования : UTC 2011-05-20 18:22:34
Программа кодирования : mkvmerge v4.7.0 ('Just Like You Imagined') built on Apr 21 2011 01:13:14
Библиотека кодирования : libebml v1.2.0 + libmatroska v1.1.0
Видео
Идентификатор : 1
Формат : AVC
Формат/Информация : Advanced Video Codec
Профиль формата : High@L4.1
Параметр CABAC формата : Да
Параметр ReFrames формата : 12 кадров
Идентификатор кодека : V_MPEG4/ISO/AVC
Продолжительность : 1 ч. 54 м.
Битрейт : 5021 Кбит/сек
Ширина : 1280 пикс.
Высота : 544 пикс.
Соотношение сторон : 2,35:1
Частота кадров : 23,976 кадр/сек
Цветовое пространство : YUV
Подвыборка цветности : 4:2:0
Битовая глубина : 8 бит
Тип развёртки : Прогрессивная
Бит/(Пиксели*Кадры) : 0.301
Размер потока : 3,93 Гбайт (90%)
Библиотека кодирования : x264 core 115 r1995 c1e60b9
Настройки программы : cabac=1 / ref=12 / deblock=1:-3:-3 / analyse=0x3:0x113 / me=umh / subme=8 / psy=1 / psy_rd=1.00:0.15 / mixed_ref=1 / me_range=32 / chroma_me=1 / trellis=1 / 8x8dct=1 / cqm=0 / deadzone=21,11 / fast_pskip=0 / chroma_qp_offset=-3 / threads=6 / sliced_threads=0 / nr=0 / decimate=1 / interlaced=0 / bluray_compat=0 / constrained_intra=0 / bframes=10 / b_pyramid=2 / b_adapt=2 / b_bias=0 / direct=3 / weightb=1 / open_gop=0 / weightp=2 / keyint=250 / keyint_min=23 / scenecut=40 / intra_refresh=0 / rc_lookahead=50 / rc=2pass / mbtree=1 / bitrate=5021 / ratetol=1.0 / qcomp=0.60 / qpmin=0 / qpmax=69 / qpstep=4 / cplxblur=20.0 / qblur=0.5 / ip_ratio=1.40 / aq=1:1.00
Язык : English
Аудио
Идентификатор : 2
Формат : AC-3
Формат/Информация : Audio Coding 3
Расширение режима : CM (complete main)
Идентификатор кодека : A_AC3
Продолжительность : 1 ч. 54 м.
Вид битрейта : Постоянный
Битрейт : 448 Кбит/сек
Каналы : 2 канала
Расположение каналов : Front: L R
Частота : 48,0 КГц
Битовая глубина : 16 бит
Метод сжатия : С потерями
Размер потока : 367 Мбайт (8%)
Язык : Russian

_________________
Показать сообщения:    

Текущее время: Сегодня 12:38

Часовой пояс: GMT



Вы не можете начинать темы
Вы не можете отвечать на сообщения
Вы не можете редактировать свои сообщения
Вы не можете удалять свои сообщения
Вы не можете голосовать в опросах
Вы не можете прикреплять файлы к сообщениям
Вы не можете скачивать файлы
Наши партнеры: интернет магазин Ивановского трикотажа textilla.ru