Важное объявление!
У Нас Все раздачи мультитрекерные, при нуле пиров в релизах, можете смело вставать на закачку!
 
Автор Сообщение

HUNTER

Стаж:
4 года 4 месяца
Сообщений:
56848

Репутация: 101

[+] [-]
Вне форума [Профиль] [ЛС]

Остров
Год выпуска: 2006
Страна: Россия
Жанр: драма
Продолжительность: 01:54:56
Перевод: Не требуется
Русские субтитры: есть
Режиссер: Павел Лунгин
В ролях: Петр Мамонов, Виктор Сухоруков, Дмитрий Дюжев, Юрий Кузнецов, Виктория Исакова, Нина Усатова, Яна Есипович, Ольга Демидова, Тимофей Трибунцев, Алексей Зеленский
Описание: Вторая мировая война. Баржу, на которой Анатолий и его старший товарищ Тихон перевозят уголь, захватывает немецкий сторожевой корабль. Вымаливая пощаду у немцев, Анатолий совершает предательство — расстреливает Тихона. Немцы оставляют труса на заминированной барже, но благодаря помощи монахов, проживающих в монастыре на острове, ему удается выжить.
Проходят годы. Старца Анатолия почитают за праведную жизнь и поистине чудесную помощь, которую он оказывает приехавшим сюда людям. Однако страшный грех убийства, совершенный им во время войны, не дает ему покоя. Чувствуя приближение своей кончины, Анатолий готовится к смерти и пока не знает, что скоро будет прощен…
Доп. информация: Сохранены оригинальные чаптеры как на Blu-ray.

Скриншоты для сравнения качества

______________ Source ______________ vs ______________ Encode ______________




MediaInfo

Код:
Общее
Уникальный идентификатор         : 226453452893223118996923824375857015426 (0xAA5D593D6FB47F2AA6DF6F6B739DEA82)
Полное имя                       : D:\Torrent Downloads\Видео\Фильмы\Ostrov.2006.720p.BluRay.Rus.HDCLUB.mkv
Формат                           : Matroska
Размер файла                     : 7,05 Гбайт
Продолжительность                : 1 ч. 54 м.
Общий поток                      : 8820 Кбит/сек
Название фильма                  : Остров (2006) - Release for HDCLUB
Дата кодирования                 : UTC 2011-05-23 09:05:45
Программа кодирования            : mkvmerge v4.7.0 ('Just Like You Imagined') сборка от Apr 21 2011 01:13:14
Библиотека кодирования           : libebml v1.2.0 + libmatroska v1.1.0
Видео
Идентификатор                    : 1
Формат                           : AVC
Формат/Информация                : Advanced Video Codec
Профиль формата                  : High@L4.1
Параметр CABAC формата           : Да
Параметр ReFrames формата        : 6 кадров
Идентификатор кодека             : V_MPEG4/ISO/AVC
Продолжительность                : 1 ч. 54 м.
Битрейт                          : 7135 Кбит/сек
Ширина                           : 1280 пикс.
Высота                           : 546 пикс.
Соотношение сторон               : 2,35:1
Частота кадров                   : 23,976 кадр/сек
Цветовое пространство            : YUV
Подвыборка цветности             : 4:2:0
Битовая глубина                  : 8 бит
Тип развёртки                    : Прогрессивная
Бит/(Пиксели*Кадры)              : 0.426
Размер потока                    : 5,70 Гбайт (81%)
Заголовок                        : Остров (2006) - Release for HDCLUB
Библиотека кодирования           : x264 core 115 r1995 c1e60b9
Настройки программы              : cabac=1 / ref=6 / deblock=1:-3:-3 / analyse=0x3:0x113 / me=umh / subme=9 / psy=1 / psy_rd=1.00:0.00 / mixed_ref=1 / me_range=32 / chroma_me=1 / trellis=2 / 8x8dct=1 / cqm=0 / deadzone=21,11 / fast_pskip=0 / chroma_qp_offset=-2 / threads=6 / sliced_threads=0 / nr=0 / decimate=1 / interlaced=0 / bluray_compat=0 / constrained_intra=0 / bframes=7 / b_pyramid=2 / b_adapt=2 / b_bias=0 / direct=1 / weightb=1 / open_gop=0 / weightp=2 / keyint=250 / keyint_min=23 / scenecut=40 / intra_refresh=0 / rc_lookahead=60 / rc=crf / mbtree=0 / crf=17.0 / qcomp=0.60 / qpmin=10 / qpmax=51 / qpstep=4 / vbv_maxrate=50000 / vbv_bufsize=62500 / crf_max=0.0 / nal_hrd=none / ip_ratio=1.40 / pb_ratio=1.30 / aq=1:0.80
Язык                             : Russian
Аудио
Идентификатор                    : 2
Формат                           : DTS
Формат/Информация                : Digital Theater Systems
Идентификатор кодека             : A_DTS
Продолжительность                : 1 ч. 54 м.
Вид битрейта                     : Постоянный
Битрейт                          : 1510 Кбит/сек
Каналы                           : 2 канала
Расположение каналов             : Front: L R
Частота                          : 48,0 КГц
Битовая глубина                  : 16 бит
Метод сжатия                     : С потерями
Размер потока                    : 1,21 Гбайт (17%)
Заголовок                        : DTS 2.0ch 1510 kbps
Язык                             : Russian
Текст #1
Идентификатор                    : 3
Формат                           : UTF-8
Идентификатор кодека             : S_TEXT/UTF8
Идентификатор кодека/Информация  : UTF-8 Plain Text
Язык                             : Russian
Текст #2
Идентификатор                    : 4
Формат                           : UTF-8
Идентификатор кодека             : S_TEXT/UTF8
Идентификатор кодека/Информация  : UTF-8 Plain Text
Язык                             : Ukrainian
Текст #3
Идентификатор                    : 5
Формат                           : UTF-8
Идентификатор кодека             : S_TEXT/UTF8
Идентификатор кодека/Информация  : UTF-8 Plain Text
Язык                             : English
Меню
00:00:00.000                     : ru:Эпизод 1
00:03:10.690                     : ru:Эпизод 2
00:11:05.582                     : ru:Эпизод 3
00:18:12.675                     : ru:Эпизод 4
00:26:53.195                     : ru:Эпизод 5
00:35:31.671                     : ru:Эпизод 6
00:41:03.211                     : ru:Эпизод 7
00:46:00.633                     : ru:Эпизод 8
00:55:04.384                     : ru:Эпизод 9
01:03:24.634                     : ru:Эпизод 10
01:11:52.225                     : ru:Эпизод 11
01:20:13.809                     : ru:Эпизод 12
01:29:51.344                     : ru:Эпизод 13
01:37:26.340                     : ru:Эпизод 14
01:43:02.259                     : ru:Эпизод 15
01:51:34.938                     : ru:Эпизод 16
Релиз группы:
Качество: BDRip
Формат: MKV
Видео кодек: H.264
Аудио кодек: DTS
Видео: 1280x546 at 23.976 fps, x264@L4.1, crf, ~7308 kbps avg
Аудио: Russian: 48 kHz/16-bit, DTS, 2/0 (L,R) ch, ~1536.00 kbps avg
Субтитры: Russian (SDH), Ukrainian (SDH), English

_________________
Показать сообщения:    

Текущее время: Сегодня 06:51

Часовой пояс: GMT



Вы не можете начинать темы
Вы не можете отвечать на сообщения
Вы не можете редактировать свои сообщения
Вы не можете удалять свои сообщения
Вы не можете голосовать в опросах
Вы не можете прикреплять файлы к сообщениям
Вы не можете скачивать файлы
Наши партнеры: интернет магазин Ивановского трикотажа textilla.ru