Важное объявление!
У Нас Все раздачи мультитрекерные, при нуле пиров в релизах, можете смело вставать на закачку!
 
Автор Сообщение

HUNTER

Стаж:
4 года 4 месяца
Сообщений:
56772

Репутация: 101

[+] [-]
Вне форума [Профиль] [ЛС]

Остаться в живых / Stay Alive
Страна: США
Студия: Endgame Entertainment, Hollywood Pictures, Spyglass Entertainment, Wonderland Sound and Vision
Жанр: ужасы, триллер
Год выпуска: 2006
Продолжительность: 01:25:55
Перевод: Профессиональный (дублированный) МОСФИЛЬМ-мастер
Cубтитры: нет
Оригинальная аудиодорожка: английский
Режиссер: Уильям Брент Белл / William Brent Bell
В ролях: Джон Фостер, Самира Армстронг, Фрэнки Муниз, Джимми Симпсон, Уенделл Пирс, Майло Вентимилья, София Буш, Адам Голдберг, Билли Слотер, Николь Оппермэнн
Описание:
Группа подростков из Нью-Орлеана просто помешана на пугающей ролевой видео-игре — «Остаться в живых». Суть игры — разыгрывать леденящие душу истории из жизни таинственной аристократки, которая жила в 17 веке и носила прозвище «Кровавая графиня».
Неожиданно один за другим подростки начинают погибать, причем убивают их тем же изощренным способом, что и их персонажей. Жестокий вымысел все теснее и теснее переплетается с реальностью… Ребятам нужно успеть победить порочную и беспощадную «Кровавую графиню». Им нужно остаться в живых…

Сэмпл
WEB-DL 720p куплен за счет личных средств.
Режиссерской версии к сожалению нет в itunes
Тип релиза: WEB-DL 720p
Контейнер: MKV
Видео: 1280x542 at 23.976 fps, MPEG-4 AVC, ~3 800 kbps avg
Аудио 1: AC3, 3/2 (L,C,R,l,r) + LFE ch, 48 kHz, ~448.00 kbps avg Профессиональный (дублированный) МОСФИЛЬМ-мастер
Аудио 2: AC3, 3/2 (L,C,R,l,r) + LFE ch, 48 kHz, ~384.00 kbps avg Английский

MediaInfo

General
Complete name : Stay.Alive.2006.WEB-DL.720p.DUB.mkv
Format : Matroska
Format version : Version 4 / Version 2
File size : 2.85 GiB
Duration : 1h 25mn
Overall bit rate : 4 740 Kbps
Encoded date : UTC 2015-11-14 00:16:32
Writing application : mkvmerge v8.5.2 ('Crosses') 64bit
Writing library : libebml v1.3.3 + libmatroska v1.4.4
DURATION : 01:25:55.776000000
NUMBER_OF_FRAMES : 161118
NUMBER_OF_BYTES : 288723456
_STATISTICS_WRITING_APP : mkvmerge v8.5.2 ('Crosses') 64bit
_STATISTICS_WRITING_DATE_UT : 2015-11-14 00:16:32
_STATISTICS_TAGS : BPS DURATION NUMBER_OF_FRAMES NUMBER_OF_BYTES
Video
ID : 1
Format : AVC
Format/Info : Advanced Video Codec
Format profile : Main@L3.1
Format settings, CABAC : No
Format settings, ReFrames : 2 frames
Codec ID : V_MPEG4/ISO/AVC
Duration : 1h 25mn
Bit rate : 3 814 Kbps
Width : 1 280 pixels
Height : 542 pixels
Display aspect ratio : 2.35:1
Frame rate mode : Constant
Frame rate : 23.976 fps
Color space : YUV
Chroma subsampling : 4:2:0
Bit depth : 8 bits
Scan type : Progressive
Bits/(Pixel*Frame) : 0.229
Stream size : 2.29 GiB (80%)
Language : English
Default : Yes
Forced : No
Color range : Limited
Color primaries : BT.709
Transfer characteristics : BT.709
Matrix coefficients : BT.709
Audio #1
ID : 2
Format : AC-3
Format/Info : Audio Coding 3
Mode extension : CM (complete main)
Format settings, Endianness : Big
Codec ID : A_AC3
Duration : 1h 25mn
Bit rate mode : Constant
Bit rate : 448 Kbps
Channel(s) : 6 channels
Channel positions : Front: L C R, Side: L R, LFE
Sampling rate : 48.0 KHz
Compression mode : Lossy
Stream size : 275 MiB (9%)
Title : Russian
Language : Russian
Default : Yes
Forced : No
Audio #2
ID : 3
Format : AC-3
Format/Info : Audio Coding 3
Mode extension : CM (complete main)
Format settings, Endianness : Big
Codec ID : A_AC3
Duration : 1h 25mn
Bit rate mode : Constant
Bit rate : 384 Kbps
Channel(s) : 6 channels
Channel positions : Front: L C R, Side: L R, LFE
Sampling rate : 48.0 KHz
Compression mode : Lossy
Stream size : 236 MiB (8%)
Title : English
Language : English
Default : No
Forced : No
Menu
00:00:00.000 : en:Begin
00:03:26.000 : en:Loomis
00:07:37.000 : en:Grief
00:12:09.000 : en:Game
00:14:26.000 : en:Mobilize
00:16:48.000 : en:Recite
00:20:34.000 : en:Countess
00:23:37.000 : en:Office
00:26:00.000 : en:Play
00:33:41.000 : en:Research
00:36:41.000 : en:Drive
00:40:01.000 : en:Think
00:45:27.000 : en:Location
00:50:04.000 : en:Nailed
00:54:14.000 : en:House
01:01:01.000 : en:Run
01:06:56.000 : en:Cemetery
01:11:52.000 : en:Awaken
01:16:50.000 : en:Over
01:17:59.000 : en:Credits

Скриншоты


_________________
Показать сообщения:    

Текущее время: Сегодня 12:58

Часовой пояс: GMT



Вы не можете начинать темы
Вы не можете отвечать на сообщения
Вы не можете редактировать свои сообщения
Вы не можете удалять свои сообщения
Вы не можете голосовать в опросах
Вы не можете прикреплять файлы к сообщениям
Вы не можете скачивать файлы