Важное объявление!
У Нас Все раздачи мультитрекерные, при нуле пиров в релизах, можете смело вставать на закачку!
 
Автор Сообщение

HUNTER

Стаж:
4 года 4 месяца
Сообщений:
56829

Репутация: 101

[+] [-]
Вне форума [Профиль] [ЛС]

Останкино. Башня в огне
Дата/Год выпуска: 2015
Страна: Россия
Жанр: документальный
Продолжительность: 00:51:45
Перевод: Не требуется
Русские субтитры: нет
Оригинальная аудиодорожка: русский
Режиссер: Татьяна Варданян
Телеканал: Первый каналОписание: 27 августа 2000 года произошла одна из крупнейших техногенных катастроф в истории России, загорелась Останкинская телебашня. Москва и область оказались в информационном вакууме. Первыми происшествие заметили не пожарные, а жительница дома номер 4 по Гостиничному проезду Елена Тонина, она то и позвонила в службу "01", сообщив, что из-под шпиля Останкинской башни валит дым. Пожарные системы на вышке к тому времени давно устарели. Как поставили их во время строительства в 1967 году, так с тех пор и не меняли. Не были предусмотрены дымовые датчики. Никому в голову не приходило, что антенные кабели могут загореться. Так что же вспыхнуло?Сэмпл: https://www.sendspace.com/file/9ri7fn
качество: SATRip
формат: AVI
Видео: Xvid 704x400 (16:9) 25fps 1534kbps
Аудио: MP3 48000Hz stereo (2ch) 192kbps

MediaInfo

GeneralComplete name : I:\Мои раздачи\Останкино. Башня в огне.aviFormat : AVIFormat/Info : Audio Video InterleaveFile size : 643 MiBDuration : 51mn 45sOverall bit rate : 1 736 Kbps
VideoID : 0Format : MPEG-4 VisualFormat profile : Advanced Simple@L5Format settings, BVOP : YesFormat settings, QPel : NoFormat settings, GMC : No warppointsFormat settings, Matrix : Default (H.263)Codec ID : XVIDCodec ID/Hint : XviDDuration : 51mn 45sBit rate : 1 534 KbpsWidth : 704 pixelsHeight : 400 pixelsDisplay aspect ratio : 16:9Frame rate : 25.000 fpsColor space : YUVChroma subsampling : 4:2:0Bit depth : 8 bitsScan type : ProgressiveCompression mode : LossyBits/(Pixel*Frame) : 0.218Stream size : 568 MiB (88%)Writing library : XviD 64
AudioID : 1Format : MPEG AudioFormat version : Version 1Format profile : Layer 3Mode : Joint stereoCodec ID : 55Codec ID/Hint : MP3Duration : 51mn 45sBit rate mode : ConstantBit rate : 192 KbpsChannel(s) : 2 channelsSampling rate : 48.0 KHzCompression mode : LossyStream size : 71.1 MiB (11%)Alignment : Split accross interleavesInterleave, duration : 40 ms (1.00 video frame)Interleave, preload duration : 500 ms

Скриншоты


_________________
Показать сообщения:    

Текущее время: Сегодня 10:39

Часовой пояс: GMT



Вы не можете начинать темы
Вы не можете отвечать на сообщения
Вы не можете редактировать свои сообщения
Вы не можете удалять свои сообщения
Вы не можете голосовать в опросах
Вы не можете прикреплять файлы к сообщениям
Вы не можете скачивать файлы