Важное объявление!
У Нас Все раздачи мультитрекерные, при нуле пиров в релизах, можете смело вставать на закачку!
 
Автор Сообщение

HUNTER

Стаж:
4 года 4 месяца
Сообщений:
56733

Репутация: 101

[+] [-]
Вне форума [Профиль] [ЛС]

Особо тяжкие преступления / High Crimes-
Год выпуска: 2002
Страна: США
Жанр: триллер, драма, криминал
Продолжительность: 01:55:13
Перевод: Профессиональный (полное дублирование) Blu-ray EUR
+ Профессиональный (многоголосый, закадровый) R1
+ Авторский одноголосый В.Королев
Оригинальная звуковая дорожка: English
Субтитры: Russian, English-Режиссер: Карл Франклин / Carl Franklin
В ролях: Эшли Джадд, Морган Фриман, Джеймс Кэвизел, Адам Скотт, Аманда Пит, Брюс Дэвисон, Том Бауэр, Хуан Карлос Хернандез, Майкл Гэстон, Джуд Чикколелла
О фильме: Преуспевающая в своей деятельности адвокат и счастливая супруга, героиня Эшли Джадд, потрясена известием о том, что ее муж является секретным агентом, работающим под прикрытием.
Мало того, он еще и обвинен в совершении государственного военного преступления. Поскольку она готовится защищать своего мужа в военном суде, то ей на помощь приходит бывший военный поверенный, который играет по своим правилам…-LolHD!
Релиз:
Формат: MKV
Видео: 1920x820 at 23.976 fps, x264@L4.1, crf, ~17800 kbps avg
Аудио #01: Russian: 48 kHz, DTS, 3/2 (L,C,R,l,r) + LFE ch, ~768.00 kbps avg |Дубляж, Blu-ray EUR|
Аудио #02: Russian: 48 kHz, AC3, 3/2 (L,C,R,l,r) + LFE ch, ~448.00 kbps avg |Многоголосый закадровый, R1|
Аудио #03: Russian: 48 kHz, DTS, 3/2 (L,C,R,l,r) + LFE ch, ~1536.00 kbps avg |Одноголосый закадровый, В.Королев|
Аудио #04: Ukrainian: 48 kHz, AC3, 3/2 (L,C,R,l,r) + LFE ch, ~384.00 kbps avg |Многоголосый закадровый, 2+2|
Аудио #05: English: 48 kHz, DTS, 3/2 (L,C,R,l,r) + LFE ch, ~1536.00 kbps avg
Аудио #06: English: 48 kHz, AC3, 2/0 (L,R) ch, ~224.00 kbps avg |Director's Commentary|
Семпл-
-

mInfo

Полное имя : E:\High.Crimes.2002.1080p.BluRay.3xRus.Ukr.2xEng.HDCLUB.mkv
Формат : Matroska
Версия формата : Version 4 / Version 2
Размер файла : 18,5 Гбайт
Продолжительность : 1 ч. 55 м.
Общий поток : 23,0 Мбит/сек
Название фильма : High Crimes (2002) - Release for HDCLUB
Дата кодирования : UTC 2015-03-19 12:10:26
Программа кодирования : mkvmerge v7.7.0 ('Six Voices') 64bit built on Feb 28 2015 23:39:33
Библиотека кодирования : libebml v1.3.1 + libmatroska v1.4.2
DURATION : 01:55:13.920000000
NUMBER_OF_FRAMES : 216060
NUMBER_OF_BYTES : 331868160
_STATISTICS_WRITING_APP : mkvmerge v7.7.0 ('Six Voices') 64bit built on Feb 28 2015 23:39:33
_STATISTICS_WRITING_DATE_UTC : 2015-03-19 12:10:26
_STATISTICS_TAGS : BPS DURATION NUMBER_OF_FRAMES NUMBER_OF_BYTES
Видео
Идентификатор : 1
Формат : AVC
Формат/Информация : Advanced Video Codec
Профиль формата : High@L4.1
Параметр CABAC формата : Да
Параметр ReFrames формата : 5 кадров
Идентификатор кодека : V_MPEG4/ISO/AVC
Продолжительность : 1 ч. 55 м.
Битрейт : 17,7 Мбит/сек
Ширина : 1920 пикселей
Высота : 820 пикселей
Соотношение сторон : 2,35:1
Режим частоты кадров : Постоянный
Частота кадров : 23,976 кадра/сек
Цветовое пространство : YUV
Субдискретизация насыщенности : 4:2:0
Битовая глубина : 8 бит
Тип развёртки : Прогрессивная
Бит/(Пиксели*Кадры) : 0.469
Размер потока : 14,2 Гбайт (77%)
Библиотека кодирования : x264 core 142 r2431kMod ac76440
Настройки программы : cabac=1 / ref=5 / deblock=1:-3:-3 / analyse=0x3:0x133 / me=umh / subme=10 / psy=1 / fade_compensate=0.00 / psy_rd=1.05:0.00 / mixed_ref=1 / me_range=48 / chroma_me=1 / trellis=2 / 8x8dct=1 / cqm=0 / deadzone=21,11 / fast_pskip=0 / chroma_qp_offset=-2 / threads=24 / lookahead_threads=6 / sliced_threads=0 / nr=0 / decimate=0 / interlaced=0 / bluray_compat=0 / constrained_intra=0 / fgo=0 / bframes=10 / b_pyramid=2 / b_adapt=2 / b_bias=0 / direct=3 / weightb=1 / open_gop=0 / weightp=2 / keyint=250 / keyint_min=23 / scenecut=40 / intra_refresh=0 / rc=crf / mbtree=0 / crf=18.5000 / qcomp=0.66 / qpmin=0 / qpmax=69 / qpstep=4 / ip_ratio=1.17 / pb_ratio=1.10 / aq=1:0.66
Язык : English
Default : Да
Forced : Нет
DURATION : 01:55:13.907000000
NUMBER_OF_FRAMES : 165768
NUMBER_OF_BYTES : 15683080126
_STATISTICS_WRITING_APP : mkvmerge v7.7.0 ('Six Voices') 64bit built on Feb 28 2015 23:39:33
_STATISTICS_WRITING_DATE_UTC : 2015-03-19 12:10:26
_STATISTICS_TAGS : BPS DURATION NUMBER_OF_FRAMES NUMBER_OF_BYTES
Аудио #1
Идентификатор : 2
Формат : DTS
Формат/Информация : Digital Theater Systems
Режим : 16
Параметр Endianness формата : Big
Идентификатор кодека : A_DTS
Продолжительность : 1 ч. 55 м.
Вид битрейта : Постоянный
Битрейт : 768 Кбит/сек
Каналы : 6 каналов
Расположение каналов : Front: L C R, Side: L R, LFE
Частота : 48,0 КГц
Битовая глубина : 24 бит
Метод сжатия : С потерями
Размер потока : 633 Мбайт (3%)
Заголовок : |Дубляж, Blu-ray CEE|
Язык : Russian
Default : Да
Forced : Нет
Аудио #2
Идентификатор : 3
Формат : AC-3
Формат/Информация : Audio Coding 3
Расширение режима : CM (complete main)
Параметр Endianness формата : Big
Идентификатор кодека : A_AC3
Продолжительность : 1 ч. 55 м.
Вид битрейта : Постоянный
Битрейт : 448 Кбит/сек
Каналы : 6 каналов
Расположение каналов : Front: L C R, Side: L R, LFE
Частота : 48,0 КГц
Битовая глубина : 16 бит
Метод сжатия : С потерями
Размер потока : 369 Мбайт (2%)
Заголовок : |Многоголосый закадровый, R1|
Язык : Russian
Default : Нет
Forced : Нет
Аудио #3
Идентификатор : 4
Формат : DTS
Формат/Информация : Digital Theater Systems
Режим : 16
Параметр Endianness формата : Big
Идентификатор кодека : A_DTS
Продолжительность : 1 ч. 55 м.
Вид битрейта : Постоянный
Битрейт : 1509 Кбит/сек
Каналы : 6 каналов
Расположение каналов : Front: L C R, Side: L R, LFE
Частота : 48,0 КГц
Битовая глубина : 24 бит
Метод сжатия : С потерями
Размер потока : 1,21 Гбайт (7%)
Заголовок : |Одноголосый закадровый, В.Королев|
Язык : Russian
Default : Нет
Forced : Нет
Аудио #4
Идентификатор : 5
Формат : AC-3
Формат/Информация : Audio Coding 3
Расширение режима : CM (complete main)
Параметр Endianness формата : Big
Идентификатор кодека : A_AC3
Продолжительность : 1 ч. 55 м.
Вид битрейта : Постоянный
Битрейт : 384 Кбит/сек
Каналы : 6 каналов
Расположение каналов : Front: L C R, Side: L R, LFE
Частота : 48,0 КГц
Битовая глубина : 16 бит
Метод сжатия : С потерями
Размер потока : 316 Мбайт (2%)
Заголовок : |Многоголосый закадровый, 2+2|
Язык : Ukrainian
Default : Нет
Forced : Нет
Аудио #5
Идентификатор : 6
Формат : DTS
Формат/Информация : Digital Theater Systems
Режим : 16
Параметр Endianness формата : Big
Идентификатор кодека : A_DTS
Продолжительность : 1 ч. 55 м.
Вид битрейта : Постоянный
Битрейт : 1509 Кбит/сек
Каналы : 6 каналов
Расположение каналов : Front: L C R, Side: L R, LFE
Частота : 48,0 КГц
Битовая глубина : 24 бит
Метод сжатия : С потерями
Размер потока : 1,21 Гбайт (7%)
Язык : English
Default : Нет
Forced : Нет
Аудио #6
Идентификатор : 7
Формат : AC-3
Формат/Информация : Audio Coding 3
Расширение режима : CM (complete main)
Параметр Endianness формата : Big
Идентификатор кодека : A_AC3
Продолжительность : 1 ч. 55 м.
Вид битрейта : Постоянный
Битрейт : 224 Кбит/сек
Каналы : 2 канала
Расположение каналов : Front: L R
Частота : 48,0 КГц
Битовая глубина : 16 бит
Метод сжатия : С потерями
Размер потока : 185 Мбайт (1%)
Заголовок : Commentary
Язык : English
Default : Нет
Forced : Нет
Текст #1
Идентификатор : 8
Формат : UTF-8
Идентификатор кодека : S_TEXT/UTF8
Идентификатор кодека/Информация : UTF-8 Plain Text
Язык : Russian
Default : Нет
Forced : Нет
Текст #2
Идентификатор : 9
Формат : UTF-8
Идентификатор кодека : S_TEXT/UTF8
Идентификатор кодека/Информация : UTF-8 Plain Text
Язык : English
Default : Нет
Forced : Нет
Меню
00:00:00.000 : en:Massacre (Main Titles)
00:04:09.040 : en:The Defense Attorney
00:07:42.212 : en:Someone in the House
00:09:34.115 : en:Under Arrest
00:12:13.775 : en:Jackie
00:13:51.247 : en:San Lazaro
00:16:03.379 : en:Ron or Tom?
00:18:57.636 : en:Military Law
00:21:13.772 : en:Tom's Story
00:25:38.328 : en:Charlie Grimes
00:29:09.289 : en:The Wild Card
00:35:08.273 : en:Dead Witnesses
00:37:00.218 : en:The Deal
00:38:57.126 : en:Intruder
00:40:18.875 : en:Unethical Repartee
00:41:42.041 : en:The Polygraph Test
00:42:57.658 : en:A Flawed Investigation
00:47:54.205 : en:Lying Without Lying
00:51:12.194 : en:Embry's Friends
00:55:27.908 : en:Sick Things
00:57:53.929 : en:The Witness
01:01:33.440 : en:A Reason to Slip
01:05:05.360 : en:Inadmissible Evidence
01:09:16.069 : en:General Marks
01:10:13.376 : en:Gambit
01:12:00.316 : en:The Cover-Up
01:17:10.918 : en:Drunk Again
01:19:04.406 : en:The "Accident"
01:22:04.169 : en:Merry Christmas
01:24:27.020 : en:Classified Documents
01:27:13.728 : en:A Matter of Record
01:32:13.695 : en:The Department's Decision
01:35:37.482 : en:The Ambidextrous Killer
01:40:06.417 : en:Trained to Kill
01:47:16.472 : en:Grimes & Grimaldi
01:50:23.700 : en:End Titles
-

_________________
Показать сообщения:    

Текущее время: Сегодня 20:31

Часовой пояс: GMT



Вы не можете начинать темы
Вы не можете отвечать на сообщения
Вы не можете редактировать свои сообщения
Вы не можете удалять свои сообщения
Вы не можете голосовать в опросах
Вы не можете прикреплять файлы к сообщениям
Вы не можете скачивать файлы