Важное объявление!
У Нас Все раздачи мультитрекерные, при нуле пиров в релизах, можете смело вставать на закачку!
 
Автор Сообщение

HUNTER

Стаж:
4 года 4 месяца
Сообщений:
56765

Репутация: 101

[+] [-]
Вне форума [Профиль] [ЛС]

Оскорбление / The Offence
Страна: США
Жанр: триллер, драма, криминал
Год выпуска: 1972
Продолжительность: 01:52:44
Перевод: Профессиональный (двухголосый закадровый) НТВ+
Оригинальная аудиодорожка: английский
Cубтитры: нет
Режиссер: Сидни Люмет / Sidney Lumet
В ролях: Шон Коннери, Тревор Ховард, Вивьен Мерчант, Иэн Бэннен, Питер Боулз, Джон Хэллам, Ричард Мур, Энтони Сагар
Описание: За 20 лет службы в полиции детектив Джонсон повидал много такого, от чего может расстроиться психика: убийства, грабежи, изнасилования и еще бог знает что. Однажды во время очередного допроса у него возникает нервный срыв и он руками забивает до смерти подозреваемого в растлении малолетних.
Позже, придя в себя и проанализировав происшедшее, Джонсон осознает, что и сам не слишком отличается от своих «клиентов». Теперь он понимает, что жить, как прежде он уже не сможет…

Сэмпл: https://yadi.sk/i/zV8x4XTqd2ESr
Тип релиза: BDRip 1080p
Контейнер: MKV
Видео: AVC, 1808x1080 (1.674:1), 8583 kbps, 23.976 fps
Аудио: AC-3 / 2.0 ch / 48 kHz / 16 bit / 192 kbps - DVO [HTB+].
Аудио 2: DTS / 2.0 ch / 48 kHz / 24 bit / 1510 kbps - Original.

MediaInfo

General
Unique ID : 219667148935604529943993856232283633685 (0xA5425A9F4E7A842B9DCEA8E7190EF815)
Complete name : G:\Фильмы\Оскорбление. BDRip. 1080p..mkv
Format : Matroska
Format version : Version 4 / Version 2
File size : 8.09 GiB
Duration : 1h 52mn
Overall bit rate : 10.3 Mbps
Encoded date : UTC 2014-11-29 01:53:39
Writing application : mkvmerge v6.6.0 ('The Edge Of The In Between') built on Dec 1 2013 17:55:00
Writing library : libebml v1.3.0 + libmatroska v1.4.1
Video #1
ID : 1
Format : AVC
Format/Info : Advanced Video Codec
Format profile : High@L4.1
Format settings, CABAC : Yes
Format settings, ReFrames : 4 frames
Codec ID : V_MPEG4/ISO/AVC
Duration : 1h 52mn
Bit rate : 8 583 Kbps
Width : 1 808 pixels
Height : 1 080 pixels
Display aspect ratio : 1.674
Frame rate : 23.976 fps
Color space : YUV
Chroma subsampling : 4:2:0
Bit depth : 8 bits
Scan type : Progressive
Bits/(Pixel*Frame) : 0.183
Stream size : 6.59 GiB (81%)
Writing library : x264 core 142 r2491 24e4fed
Encoding settings : cabac=1 / ref=4 / deblock=1:0:0 / analyse=0x3:0x133 / me=umh / subme=7 / psy=1 / psy_rd=1.00:0.00 / mixed_ref=1 / me_range=16 / chroma_me=1 / trellis=1 / 8x8dct=1 / cqm=0 / deadzone=21,11 / fast_pskip=0 / chroma_qp_offset=-2 / threads=18 / lookahead_threads=3 / sliced_threads=0 / nr=0 / decimate=1 / interlaced=0 / bluray_compat=0 / constrained_intra=0 / bframes=3 / b_pyramid=2 / b_adapt=1 / b_bias=0 / direct=1 / weightb=1 / open_gop=0 / weightp=2 / keyint=250 / keyint_min=23 / scenecut=40 / intra_refresh=0 / rc_lookahead=40 / rc=2pass / mbtree=1 / bitrate=8583 / ratetol=1.0 / qcomp=0.60 / qpmin=0 / qpmax=69 / qpstep=4 / cplxblur=20.0 / qblur=0.5 / ip_ratio=1.40 / aq=1:1.00
Language : English
Default : Yes
Forced : No
Audio #2
ID : 2
Format : AC-3
Format/Info : Audio Coding 3
Mode extension : CM (complete main)
Format settings, Endianness : Big
Codec ID : A_AC3
Duration : 1h 52mn
Bit rate mode : Constant
Bit rate : 192 Kbps
Channel(s) : 2 channels
Channel positions : Front: L R
Sampling rate : 48.0 KHz
Bit depth : 16 bits
Compression mode : Lossy
Stream size : 155 MiB (2%)
Title : AC-3 / 2.0 ch / 48 kHz / 16 bit / 192 kbps - DVO [HTB+].
Language : Russian
Default : Yes
Forced : No
Audio #3
ID : 3
Format : DTS
Format/Info : Digital Theater Systems
Codec ID : A_DTS
Duration : 1h 52mn
Bit rate mode : Constant
Bit rate : 1 510 Kbps
Channel(s) : 2 channels
Channel positions : Front: L R
Sampling rate : 48.0 KHz
Bit depth : 24 bits
Compression mode : Lossy
Stream size : 1.19 GiB (15%)
Title : DTS / 2.0 ch / 48 kHz / 24 bit / 1510 kbps - Original.
Language : English
Default : No
Forced : No

Скриншоты





_________________
Показать сообщения:    

Текущее время: Сегодня 18:53

Часовой пояс: GMT



Вы не можете начинать темы
Вы не можете отвечать на сообщения
Вы не можете редактировать свои сообщения
Вы не можете удалять свои сообщения
Вы не можете голосовать в опросах
Вы не можете прикреплять файлы к сообщениям
Вы не можете скачивать файлы