Важное объявление!
У Нас Все раздачи мультитрекерные, при нуле пиров в релизах, можете смело вставать на закачку!
 
Автор Сообщение

HUNTER

Стаж:
4 года 4 месяца
Сообщений:
56755

Репутация: 101

[+] [-]
Вне форума [Профиль] [ЛС]

Оскар и Люсинда / Oscar and Lucinda
Страна: США, Великобритания, Австралия
Студия: Australian Film Finance Corporation (AFFC), Dalton Films, Fox Searchlight Pictures
Жанр: драма, мелодрама
Год выпуска: 1997
Продолжительность: 02:11:54
Перевод: Профессиональный (многоголосый закадровый) 1 канал
Cубтитры: английские
Оригинальная аудиодорожка: английский
Режиссер: Джиллиан Армстронг / Gillian Armstrong
В ролях: Рэйф Файнс, Кейт Бланшетт, Кирен Хайдз, Том Уилкинсон, Ричард Роксбург, Клайв Расселл, Билли Браун, Жозефин Бернс, Барнеби Кэй, Бэрри Отто…
Описание: Оскар — молодой священник, который играет в азартные игры, а весь выигрыш жертвует в пользу бедных. Люсинда — деловая женщина из Австралии, для которой не существует никаких правил, установленных обществом.
Познакомившись за карточным столом, они заключают безумное пари. Люсинда строит церковь полностью из стекла, а Оскар обязуется перевезти ее в целости и сохранности в Австралию. Ставки сделаны…
II Сэмпл II IMDB II
Доп. информация: За дорогу 1 канала спасибо dmitry2264
Тип релиза: WEB-DL 720p
Контейнер: MKV
Видео: AVC / 1280x540 / 2.37:1 / 23.976fps / Bit rate 3919Kbps
Аудио 1: AC3 / 48.0 KHz / 2ch. / 192kbps / rus / mvo / 1 канал
Аудио 2: AC3 / 48.0 KHz / 6ch. / 384kbps / eng
Формат субтитров: softsub (SRT)

MediaInfo

Общее
Уникальный идентификатор : 248738087302542688378571810684719058959 (0xBB21368B6619BC77BBF4CFB98B1BD00F)
Полное имя : G:\!!!_torrent\Oscar.and.Lucinda1997.WEB-DL.720p_by_vedigo.mkv
Формат : Matroska
Версия формата : Version 4 / Version 2
Размер файла : 4,23 Гбайт
Продолжительность : 2 ч. 11 м.
Общий поток : 4586 Кбит/сек
Название фильма : Oscar.and.Lucinda1997.WEB-DL.720p_by_vedigo
Дата кодирования : UTC 2015-08-18 01:49:07
Программа кодирования : mkvmerge v8.3.0 ('Over the Horizon') 64bit
Библиотека кодирования : libebml v1.3.1 + libmatroska v1.4.2
Attachements : cover.jpg / cover_land.jpg / small_cover.jpg / small_cover_land.jpg
DURATION : 02:07:09.090000000
NUMBER_OF_FRAMES : 1403
NUMBER_OF_BYTES : 47287
_STATISTICS_WRITING_APP : mkvmerge v8.3.0 ('Over the Horizon') 64bit
_STATISTICS_WRITING_DATE_UTC : 2015-08-18 01:49:07
_STATISTICS_TAGS : BPS DURATION NUMBER_OF_FRAMES NUMBER_OF_BYTES
Видео
Идентификатор : 1
Формат : AVC
Формат/Информация : Advanced Video Codec
Профиль формата : Main@L3.1
Параметр CABAC формата : Нет
Параметр ReFrames формата : 2 кадра
Идентификатор кодека : V_MPEG4/ISO/AVC
Продолжительность : 2 ч. 11 м.
Битрейт : 3919 Кбит/сек
Ширина : 1280 пикселей
Высота : 540 пикселей
Соотношение сторон : 2,40:1
Режим частоты кадров : Постоянный
Частота кадров : 23,976 кадра/сек
Цветовое пространство : YUV
Субдискретизация насыщенности : 4:2:0
Битовая глубина : 8 бит
Тип развёртки : Прогрессивная
Бит/(Пиксели*Кадры) : 0.236
Размер потока : 3,61 Гбайт (85%)
Заголовок : Oscar.and.Lucinda1997.WEB-DL.720p_by_vedigo
Default : Да
Forced : Нет
Цветовой диапазон : Limited
Основные цвета : BT.709
Характеристики трансфера : BT.709
Коэффициенты матрицы : BT.709
Аудио #1
Идентификатор : 2
Формат : AC-3
Формат/Информация : Audio Coding 3
Расширение режима : CM (complete main)
Параметр Endianness формата : Big
Идентификатор кодека : A_AC3
Продолжительность : 2 ч. 11 м.
Вид битрейта : Постоянный
Битрейт : 192 Кбит/сек
Каналы : 2 канала
Расположение каналов : Front: L R
Частота : 48,0 КГц
Метод сжатия : С потерями
Размер потока : 181 Мбайт (4%)
Заголовок : MVO @ 1 канал
Язык : Russian
Default : Да
Forced : Нет
Аудио #2
Идентификатор : 3
Формат : AC-3
Формат/Информация : Audio Coding 3
Расширение режима : CM (complete main)
Параметр Endianness формата : Big
Идентификатор кодека : A_AC3
Продолжительность : 2 ч. 11 м.
Вид битрейта : Постоянный
Битрейт : 384 Кбит/сек
Каналы : 6 каналов
Расположение каналов : Front: L C R, Side: L R, LFE
Частота : 48,0 КГц
Метод сжатия : С потерями
Размер потока : 362 Мбайт (8%)
Заголовок : original
Язык : English
Default : Нет
Forced : Нет
Текст
Идентификатор : 4
Формат : UTF-8
Идентификатор кодека : S_TEXT/UTF8
Идентификатор кодека/Информация : UTF-8 Plain Text
Заголовок : subtitle eng
Язык : English
Default : Нет
Forced : Нет
Меню
00:00:00.000 : en:Main Titles/Prologue
00:02:46.000 : en:Prince Rupert's Drop
00:05:33.000 : en:God's Will
00:13:15.000 : en:Pathological Gambler
00:19:32.000 : en:A Life in Glass
00:25:09.000 : en:Fast Company
00:33:13.000 : en:Penance
00:41:53.000 : en:Where is the Sin?
00:51:18.000 : en:Irony
00:58:54.000 : en:Outcasts
01:07:15.000 : en:A Pact
01:13:27.000 : en:The Glass Church
01:23:14.000 : en:Oscar and Lucinda
01:28:53.000 : en:Expedition
01:33:52.000 : en:Native Encounter
01:43:46.000 : en:Church on a Raft
01:51:00.000 : en:Seduction
01:54:22.000 : en:Forgive Me
02:00:59.000 : en:Oscar's Legacy
02:07:36.000 : en:End Titles

Скриншоты



_________________
Показать сообщения:    

Текущее время: Сегодня 08:38

Часовой пояс: GMT



Вы не можете начинать темы
Вы не можете отвечать на сообщения
Вы не можете редактировать свои сообщения
Вы не можете удалять свои сообщения
Вы не можете голосовать в опросах
Вы не можете прикреплять файлы к сообщениям
Вы не можете скачивать файлы