Важное объявление!
У Нас Все раздачи мультитрекерные, при нуле пиров в релизах, можете смело вставать на закачку!
 
Автор Сообщение

HUNTER

Стаж:
4 года 4 месяца
Сообщений:
56848

Репутация: 101

[+] [-]
Вне форума [Профиль] [ЛС]

Осада / The Siege

Год выхода: 1998
Жанр: боевик, триллер, драма, криминал
Выпущено: США / Twentieth Century Fox Film Corporation, Lynda Obst Productions
Продолжительность: 01:56:06
Перевод #1: Профессиональный (двухголосный, закадровый)[П.Гланц и И.Королева]
Перевод #2: Авторский (одноголосный)[Ю.Живов]
Режиссер: Эдвард Цвик
В ролях: Дензел Вашингтон, Аннетт Бенинг, Брюс Уиллис, Тони Шэлоуб, Сaми Буаджила, Ахмед Бен Ларби, Мосле Мохамед, Лианна Пай, Марк Вэлли, Джек Гуолтни
О фильме: Когда в Бруклине взлетает на воздух автобус и на улицах Нью-Йорка разворачивается кровавый террор, Хаб Хаббарт, глава Объединенного Антитеррористического Подразделения ФБР получает задание задержать террористов и предъявить им обвинение. Элиза Крафт тайный оперативный агент ЦРУ. Она обладает ценными источниками информации в среде американцев арабского происхождения и тесно связана с ними. Хаб и Элиза работают вместе, объединившись для совместной борьбы против террористической группы. Но этого оказывается недостаточно. Требования общественности обеспечить безопасность граждан вынуждают президента США объявить чрезвычайное положение и обратиться за помощью к армии. Генерал Уильям Деверо решительно берется за дело по наведению военного порядка.

Качество: HDRip-AVC
Формат: MKV
Видео кодек: h.264
Аудио кодек: AC-3
Видео: MPEG4/ISO/AVC, 720x304, 23.976fps, 1354 Kb/s, 0.257 Bits/(Pixel*Frame)
Аудио #1: 48 kHz, AC3 Dolby Digital, 3/2 (L,C,R,l,r) + LFE ch, ~448.00 kbps avg [DVO]
Аудио #2: 48 kHz, AC3 Dolby Digital, 3/2 (L,C,R,l,r) + LFE ch, ~384.00 kbps avg [AVO]

MI

General
Complete name : E:\INTERNET\The Siege.1998.HDRip-AVC.DVO[Glanz&Koroleva]+AVO[Jyvov].Km.mkv
Format : Matroska
File size : 1.76 GiB
Duration : 1h 56mn
Overall bit rate : 2 174 Kbps
Encoded date : UTC 2013-10-03 19:30:44
Writing application : mkvmerge v4.2.0 ('No Talking') сборка от Jul 28 2010 18:38:23
Writing library : libebml v1.0.0 + libmatroska v1.0.0
Video
ID : 1
Format : AVC
Format/Info : Advanced Video Codec
Format profile : [url=mailto:Main@L3.0]Main@L3.0[/url]
Format settings, CABAC : Yes
Format settings, ReFrames : 4 frames
Muxing mode : Container profile=Unknown@3.0
Codec ID : V_MPEG4/ISO/AVC
Duration : 1h 56mn
Bit rate : 1 351 Kbps
Width : 720 pixels
Height : 304 pixels
Display aspect ratio : 2.35:1
Frame rate mode : Variable
Frame rate : 23.976 fps
Color space : YUV
Chroma subsampling : 4:2:0
Bit depth : 8 bits
Scan type : Progressive
Bits/(Pixel*Frame) : 0.257
Stream size : 1.05 GiB (60%)
Title : THE SIEGE
Writing library : x264 core 112
Encoding settings : cabac=1 / ref=2 / deblock=1:0:0 / analyse=0x1:0x111 / me=hex / subme=6 / psy=1 / psy_rd=1.00:0.00 / mixed_ref=0 / me_range=16 / chroma_me=1 / trellis=0 / 8x8dct=0 / cqm=0 / deadzone=21,11 / fast_pskip=1 / chroma_qp_offset=-2 / threads=3 / sliced_threads=0 / nr=0 / decimate=1 / interlaced=0 / constrained_intra=0 / bframes=2 / b_pyramid=2 / b_adapt=1 / b_bias=0 / direct=1 / weightb=0 / open_gop=0 / weightp=2 / keyint=240 / keyint_min=23 / scenecut=40 / intra_refresh=0 / rc_lookahead=40 / rc=abr / mbtree=1 / bitrate=1351 / ratetol=1.0 / qcomp=0.60 / qpmin=3 / qpmax=51 / qpstep=4 / ip_ratio=1.40 / aq=1:1.00
Color primaries : BT.601-6 525, BT.1358 525, BT.1700 NTSC, SMPTE 170M
Transfer characteristics : BT.709-5, BT.1361
Matrix coefficients : BT.601-6 525, BT.1358 525, BT.1700 NTSC, SMPTE 170M
Audio #1
ID : 2
Format : AC-3
Format/Info : Audio Coding 3
Mode extension : CM (complete main)
Codec ID : A_AC3
Duration : 1h 56mn
Bit rate mode : Constant
Bit rate : 448 Kbps
Channel(s) : 6 channels
Channel positions : Front: L C R, Side: L R, LFE
Sampling rate : 48.0 KHz
Bit depth : 16 bits
Stream size : 372 MiB (21%)
Title : DVO(Glanz i Koroleva)
Language : Russian
Audio #2
ID : 3
Format : AC-3
Format/Info : Audio Coding 3
Mode extension : CM (complete main)
Codec ID : A_AC3
Duration : 1h 56mn
Bit rate mode : Constant
Bit rate : 384 Kbps
Channel(s) : 6 channels
Channel positions : Front: L C R, Side: L R, LFE
Sampling rate : 48.0 KHz
Bit depth : 16 bits
Stream size : 319 MiB (18%)
Title : AVO[Jivov]
Language : Russian

Скриншоты


_________________
Показать сообщения:    

Текущее время: Сегодня 01:52

Часовой пояс: GMT



Вы не можете начинать темы
Вы не можете отвечать на сообщения
Вы не можете редактировать свои сообщения
Вы не можете удалять свои сообщения
Вы не можете голосовать в опросах
Вы не можете прикреплять файлы к сообщениям
Вы не можете скачивать файлы
Наши партнеры: интернет магазин Ивановского трикотажа textilla.ru