Важное объявление!
У Нас Все раздачи мультитрекерные, при нуле пиров в релизах, можете смело вставать на закачку!
 
Автор Сообщение

HUNTER

Стаж:
4 года 4 месяца
Сообщений:
56829

Репутация: 101

[+] [-]
Вне форума [Профиль] [ЛС]

Ордер на смерть / Death warrant-
Страна: США
Жанр: боевик, драма, криминал, детектив
Год выпуска: 1990
Продолжительность: 01:29:03-Перевод: Профессиональный (многоголосый закадровый) СТС
Перевод 2: Профессиональный (двухголосый закадровый) НТВ
Перевод 3: Авторский (одноголосый закадровый) А.Гаврилов
Перевод 4: Профессиональный (многоголосый закадровый) укр.1+1
Cубтитры: русские, английские
Оригинальная аудиодорожка: английский-Режиссер: Деран Сарафян / Deran Sarafian-В ролях: Жан-Клод Ван Дамм, Роберт Гийом, Синтия Гибб, Джордж Дикерсон, Арт ЛаФлёр, Пэтрик Килпэтрик, Джошуа Джон Миллер, Хэнк Стоун, Конрад Данн, Джек Бэннон-Описание: Канадский детектив Луис Бёрк в трущобах Лос-Анджелеса преследует преступника по прозвищу «Заговорённый», который убил его напарника. «Заговорённый» устраивает засаду, но Бёрку удаётся расстрелять бандита. Шестнадцать месяцев спустя на совещании у генерального прокурора штата Тома Воглера принимается решение внедрить Бёрка в тюрьму Харрисон под видом заключённого для расследования обстоятельств смерти помощника директора тюрьмы и девятерых заключённых. Связь обеспечивает Аманда Бекетт под видом жены Бёрка. Бёрк вступает в контакт с одноглазым негром Хоукинсом, заявляя, что хочет узнать, кто убил «его друга». Хоукинс направляет его к местному авторитету «Священнику», а тот отсылает Бёрка к заключённому Майерсону. С помощью Хоукинса Бёрк проникает в хранилище и перебирает досье убитых зеков, они все закодированы аббревиатурой SL. Знакомый Бёрка подросток-вундеркинд взламывает тюремную программу и распечатывает список зеков-смертников. Однако в ходе работы неизвестный посылает команду на уничтожение программы. Бёрк устанавливает зловещие факты: никто из убитых ничем не болел, не был наркоманом, и проходил медицинское обследование. Фамилия Берка стоит следующей в списке. Одна из «подружек» «Священника» предупреждает Бёрка о покушении и ему удаётся отбиться от ночных убийц, но при этом погибает его сокамерник. Подоспевшая охрана бросает Бёрка в карцер. Парочка убийц тем временем расправляется и с «подружкой», и с Майерсоном.
-Сэмпл-Тип релиза: BDRip 720p
Контейнер: MKV-Видео: MPEG-4 AVC, 8200 kbps, 1280x694, 23.976 кадр/с
Аудио: 48 kHz, AC3, 2/0 (L,R) ch, 192 kbps avg-русский многоголосый закадровый (СТС)
Аудио 2: 48 kHz, AC3, 2/0 (L,R) ch, 224 kbps avg-русский многоголосый закадровый (НТВ)
Аудио 3: 48 kHz, DTS, 2/0 (L,R) ch, 1510 kbps, 24-bit-русский одноголосый закадровый (А.Гаврилов)
Аудио 4: 48 kHz, AC3, 2/0 (L,R) ch, 224 kbps avg-украинский многоголосый закадровый (1+1)
Аудио 5: 48 kHz, DTS, 2/0 (L,R) ch, 1510 kbps, 24-bit-английская оригинальная дорожка

MediaInfo

Общее
Уникальный идентификатор : 205434258555094313264245012713355540286 (0x9A8D32F2ACC3FAE892E0161A27C2F73E)
Полное имя : C:\Users\к\Desktop\фильмы\Order.na.smert.1990.x264.BDRip(720p).mkv
Формат : Matroska
Версия формата : Version 4 / Version 2
Размер файла : 7,37 Гбайт
Продолжительность : 1 ч. 29 м.
Общий поток : 11,9 Мбит/сек
Дата кодирования : UTC 2014-02-04 13:08:24
Программа кодирования : mkvmerge v6.3.0 ('You can't stop me!') built on Jun 28 2013 20:09:41
Библиотека кодирования : libebml v1.3.0 + libmatroska v1.4.0
Видео
Идентификатор : 1
Формат : AVC
Формат/Информация : Advanced Video Codec
Профиль формата : High@L4.1
Параметр CABAC формата : Да
Параметр ReFrames формата : 9 кадров
Идентификатор кодека : V_MPEG4/ISO/AVC
Продолжительность : 1 ч. 29 м.
Битрейт : 8200 Кбит/сек
Ширина : 1280 пикселей
Высота : 694 пикселя
Соотношение сторон : 1,85:1
Режим частоты кадров : Постоянный
Частота кадров : 23,976 кадра/сек
Цветовое пространство : YUV
Субдискретизация насыщенности : 4:2:0
Битовая глубина : 8 бит
Тип развёртки : Прогрессивная
Бит/(Пиксели*Кадры) : 0.385
Размер потока : 4,95 Гбайт (67%)
Библиотека кодирования : x264 core 125 r2200 999b753
Настройки программы : cabac=1 / ref=9 / deblock=1:-3:-3 / analyse=0x3:0x133 / me=umh / subme=11 / psy=1 / psy_rd=1.00:0.05 / mixed_ref=1 / me_range=32 / chroma_me=1 / trellis=2 / 8x8dct=1 / cqm=0 / deadzone=21,11 / fast_pskip=0 / chroma_qp_offset=-3 / threads=6 / lookahead_threads=1 / sliced_threads=0 / nr=0 / decimate=0 / interlaced=0 / bluray_compat=0 / constrained_intra=0 / bframes=9 / b_pyramid=2 / b_adapt=2 / b_bias=0 / direct=3 / weightb=1 / open_gop=0 / weightp=2 / keyint=250 / keyint_min=23 / scenecut=40 / intra_refresh=0 / rc=2pass / mbtree=0 / bitrate=8200 / ratetol=1.0 / qcomp=0.60 / qpmin=10 / qpmax=51 / qpstep=4 / cplxblur=20.0 / qblur=0.5 / ip_ratio=1.40 / pb_ratio=1.30 / aq=1:0.80
Язык : English
Default : Да
Forced : Нет
Аудио #1
Идентификатор : 2
Формат : AC-3
Формат/Информация : Audio Coding 3
Расширение режима : CM (complete main)
Параметр Endianness формата : Big
Идентификатор кодека : A_AC3
Продолжительность : 1 ч. 29 м.
Вид битрейта : Постоянный
Битрейт : 192 Кбит/сек
Каналы : 2 канала
Расположение каналов : Front: L R
Частота : 48,0 КГц
Битовая глубина : 16 бит
Метод сжатия : С потерями
Размер потока : 122 Мбайт (2%)
Заголовок : Профессиональный (многоголосый, закадровый) СТС
Язык : Russian
Default : Да
Forced : Нет
Аудио #2
Идентификатор : 3
Формат : AC-3
Формат/Информация : Audio Coding 3
Профиль формата : Dolby Digital
Расширение режима : CM (complete main)
Параметр Endianness формата : Big
Идентификатор кодека : A_AC3
Продолжительность : 1 ч. 29 м.
Вид битрейта : Постоянный
Битрейт : 224 Кбит/сек
Каналы : 2 канала
Расположение каналов : Front: L R
Частота : 48,0 КГц
Битовая глубина : 16 бит
Метод сжатия : С потерями
Размер потока : 143 Мбайт (2%)
Заголовок : MVO (HTB)
Язык : Russian
Default : Нет
Forced : Нет
Аудио #3
Идентификатор : 4
Формат : DTS
Формат/Информация : Digital Theater Systems
Режим : 16
Параметр Endianness формата : Big
Идентификатор кодека : A_DTS
Продолжительность : 1 ч. 29 м.
Вид битрейта : Постоянный
Битрейт : 1509 Кбит/сек
Каналы : 2 канала
Расположение каналов : Front: L R
Частота : 48,0 КГц
Битовая глубина : 24 бит
Метод сжатия : С потерями
Размер потока : 961 Мбайт (13%)
Заголовок : AVO (А.Гаврилов)
Язык : Russian
Default : Нет
Forced : Нет
Аудио #4
Идентификатор : 5
Формат : AC-3
Формат/Информация : Audio Coding 3
Расширение режима : CM (complete main)
Параметр Endianness формата : Big
Идентификатор кодека : A_AC3
Продолжительность : 1 ч. 29 м.
Вид битрейта : Постоянный
Битрейт : 224 Кбит/сек
Каналы : 2 канала
Расположение каналов : Front: L R
Частота : 48,0 КГц
Битовая глубина : 16 бит
Метод сжатия : С потерями
Размер потока : 143 Мбайт (2%)
Заголовок : MVO (1+1)
Язык : Ukrainian
Default : Нет
Forced : Нет
Аудио #5
Идентификатор : 6
Формат : DTS
Формат/Информация : Digital Theater Systems
Режим : 16
Параметр Endianness формата : Big
Идентификатор кодека : A_DTS
Продолжительность : 1 ч. 29 м.
Вид битрейта : Постоянный
Битрейт : 1509 Кбит/сек
Каналы : 2 канала
Расположение каналов : Front: L R
Частота : 48,0 КГц
Битовая глубина : 24 бит
Метод сжатия : С потерями
Размер потока : 961 Мбайт (13%)
Заголовок : Original
Язык : English
Default : Нет
Forced : Нет
Текст #1
Идентификатор : 7
Формат : UTF-8
Идентификатор кодека : S_TEXT/UTF8
Идентификатор кодека/Информация : UTF-8 Plain Text
Заголовок : Russian
Язык : Russian
Default : Нет
Forced : Нет
Текст #2
Идентификатор : 8
Формат : UTF-8
Идентификатор кодека : S_TEXT/UTF8
Идентификатор кодека/Информация : UTF-8 Plain Text
Заголовок : English - US - PSDH
Язык : English
Default : Нет
Forced : Нет
Меню
00:00:00.000 : :Chapter 01
00:05:19.986 : :Chapter 02
00:09:28.401 : :Chapter 03
00:15:58.499 : :Chapter 04
00:22:16.835 : :Chapter 05
00:25:21.269 : :Chapter 06
00:33:30.008 : :Chapter 07
00:36:32.231 : :Chapter 08
00:42:44.478 : :Chapter 09
00:46:57.397 : :Chapter 10
00:51:52.067 : :Chapter 11
00:55:57.854 : :Chapter 12
01:02:11.185 : :Chapter 13
01:08:19.929 : :Chapter 14
01:14:06.817 : :Chapter 15
01:24:30.982 : :Chapter 16
01:29:03.296 : :Chapter 17

Скриншоты


_________________
Показать сообщения:    

Текущее время: Сегодня 20:25

Часовой пояс: GMT



Вы не можете начинать темы
Вы не можете отвечать на сообщения
Вы не можете редактировать свои сообщения
Вы не можете удалять свои сообщения
Вы не можете голосовать в опросах
Вы не можете прикреплять файлы к сообщениям
Вы не можете скачивать файлы