Важное объявление!
У Нас Все раздачи мультитрекерные, при нуле пиров в релизах, можете смело вставать на закачку!
 
Автор Сообщение

HUNTER

Стаж:
4 года 4 месяца
Сообщений:
56842

Репутация: 101

[+] [-]
Вне форума [Профиль] [ЛС]

Оператор / The Operator
Страна: США
Студия: Black Wolf Productions, Operator Films LLC
Жанр: драматический триллер
Год выпуска: 1999
Продолжительность: 01:37:44
Перевод: Профессиональный (двухголосый закадровый)
Cубтитры: нет
Оригинальная аудиодорожка: английский
Режиссер: Джон Дихтер / Jon Dichter
В ролях: Майкл Лоуренс, Жаклин Ким, Стивен Тоболовски, Криста Миллер, Брайон Джеймс, Джордж Руссо, Джон Бизли, Фрэнсис Бэй, Дрю Снайдер, Лори Хёринг, Бетани Райт, Брэд Лиленд, Мелоди Джонс
Описание: Гэри Уилэн - преуспевающий адвокат, которого любит жена, его карьера так же стремительна, как его дорогая машина, а проблемы с бесчисленными любовницами и игорными долгами он скоро решит без труда. Но все планы Гэри внезапно рушатся, когда в разгар неудачного дня он срывает злость на операторе телефонной службы. С этого момента таинственная незнакомка превращает его счастливую жизнь в кошмар. Имея доступ ко всей информации о Гэри, могущественная Шива клянется перевернуть его мир, но только познав весь ад своего нового незавидного положения, самонадеянный эгоист и лжец понимает, что теперь его будущее в руках невидимого оператора...
Бонусы: нет
Меню: нет

Сэмпл: http://multi-up.com/999133
Тип релиза: DVD5
Контейнер: DVD-Video
Видео: PAL 4:3 (720x576(0.386)) MPEG Video, 25,000 кадр/сек, 4003 Кбит/сек
Аудио: Russian (Dolby AC3, 6ch) 448 Кбит/сек, 48,0 КГц
Аудио 2: English (Dolby AC3, 6ch) 448 Кбит/сек, 48,0 КГц

Доп. информация

Диск из частной коллекции. Дистрибьютор неизвестен.

DVDInfo

Title:
Size: 3.41 Gb ( 3 577 940 KBytes ) - DVD-5
Enabled regions: 1, 2, 3, 4, 5, 6, 7, 8
VTS_01 :
Play Length: 01:37:44
Video: PAL 4:3 (720x576) VBR
Audio:
Russian (Dolby AC3, 6 ch)
English (Dolby AC3, 6 ch)
Menu Video:
PAL 4:3 (720x576) VBR
Auto Pan&Scan, Auto Letterboxed
Menu Language Unit :
Chapter (PTT) Menu

MediaInfo

General
Complete name : D:\news\Оператор\VIDEO_TS\VTS_01_1.VOB
Format : MPEG-PS
File size : 1 024 MiB
Duration : 28mn 38s
Overall bit rate : 4 999 Kbps
Video
ID : 224 (0xE0)
Format : MPEG Video
Format version : Version 2
Format profile : Main@Main
Format settings, BVOP : Yes
Format settings, Matrix : Default
Duration : 28mn 38s
Bit rate mode : Constant
Bit rate : 4 003 Kbps
Nominal bit rate : 6 000 Kbps
Width : 720 pixels
Height : 576 pixels
Display aspect ratio : 4:3
Frame rate : 25.000 fps
Standard : PAL
Color space : YUV
Chroma subsampling : 4:2:0
Bit depth : 8 bits
Scan type : Interlaced
Scan order : Top Field First
Bits/(Pixel*Frame) : 0.386
Stream size : 820 MiB (80%)
Audio #1
ID : 128 (0x80)
Format : AC-3
Format/Info : Audio Coding 3
Mode extension : CM (complete main)
Duration : 28mn 37s
Bit rate mode : Constant
Bit rate : 448 Kbps
Channel(s) : 6 channels
Channel positions : Front: L C R, Side: L R, LFE
Sampling rate : 48.0 KHz
Video delay : -80ms
Stream size : 91.7 MiB (9%)
Audio #2
ID : 129 (0x81)
Format : AC-3
Format/Info : Audio Coding 3
Mode extension : CM (complete main)
Duration : 28mn 37s
Bit rate mode : Constant
Bit rate : 448 Kbps
Channel(s) : 6 channels
Channel positions : Front: L C R, Side: L R, LFE
Sampling rate : 48.0 KHz
Video delay : -80ms
Stream size : 91.7 MiB (9%)
Menu

Постер


_________________
Показать сообщения:    

Текущее время: Сегодня 15:12

Часовой пояс: GMT



Вы не можете начинать темы
Вы не можете отвечать на сообщения
Вы не можете редактировать свои сообщения
Вы не можете удалять свои сообщения
Вы не можете голосовать в опросах
Вы не можете прикреплять файлы к сообщениям
Вы не можете скачивать файлы