Важное объявление!
У Нас Все раздачи мультитрекерные, при нуле пиров в релизах, можете смело вставать на закачку!
 
Автор Сообщение

HUNTER

Стаж:
4 года 4 месяца
Сообщений:
56719

Репутация: 101

[+] [-]
Вне форума [Профиль] [ЛС]

Опасный Бангкок / Bangkok Dangerous
Страна: США
Жанр: боевик, триллер, драма, криминал
Год выпуска: 2008
Продолжительность: 01:39:13
Перевод: 1. Профессиональный (дублированный)
2. Авторский (одноголосый закадровый) - Юрий Немахов
Оригинальная аудиодорожка: английский
Cубтитры: русские (форсированные), русские (полные), английские (полные)-Режиссер: Оксид Пан, Дэнни Пан / Oxide Pang, Danny Pang
В ролях: Николас Кейдж (Joe), Шакрит Ямнарм (Kong), Чарли Енг (Fon), Пэнворд Хаммани (Aom), Ниратисай Канджарук (Surat), Дом Хетракул (Aran), Так Напаскорн (Kong's Brother), Стив Балдоччи (Michigan), Крис Хибинк (USC), Джеймс Уит (Chicago), Питер Шадрин (Anton)
Описание: Джо - наемный убийца. Он не привык задавать лишних вопросов. Получил задание, выполнил и исчез, не оставляя следов. Очередные цели приводят его в Бангкок, который европейцы называют Венецией Востока. Всё, как обычно: снять тихую квартирку, найти смышленного местного парня для выполнения поручений, которого не жалко убить по окончании работы, тщательно разработать каждую деталь проведения операции.
Но что-то пошло не так на этот раз. Обаятельный мелкий жулик Конг входит в доверие к Джо, располагая к себе сердце, не знающее жалости. Встреча с милой девушкой фармацевтом пробудила в душе каменного киллера странное неведомое чувство. А тут еще заказчики решили "зачистить" исполнителя...-СЭМПЛ
Тип релиза: BDRip 1080p
Исходник: Bangkok.Dangerous.2008.Blu-Ray.1080p.Dub
Контейнер: MKV
Видео: 1920х1080p / 23.976 fps / 16:9 / High Profile 4.1 / AVC / ~ 14.4 Mbps
Аудио 1: DTS / 1509 kbps / 5.1 / 48 kHz / Russian / Dub
Аудио 2: AC3 / 448 kbps / 5.1 / 48 kHz / Russian / AVO
Аудио 3: DTS / 1509 kbps / 5.1 / 48 kHz / English / original
Формат субтитров: softsub (SRT)-IMDB * КиноПоиск-Примечание: форсированные (включены по умолчанию) русские субтитры - на тайскую речь. В дубляже нет перевода тайской речи. В дорожке Юрия Немахова - есть.

MediaInfo / x264 log

General
Complete name : Bangkok.Dangerous.2008.BDRip.1080p.Dub.AVO.mkv
Format : Matroska
Format version : Version 2
File size : 12.7 GiB
Duration : 1h 39mn
Overall bit rate : 18.3 Mbps
Encoded date : UTC 2014-02-28 17:26:09
Writing application : mkvmerge v5.8.0 ('No Sleep / Pillow') built on Sep 2 2012 15:37:04
Writing library : libebml v1.2.3 + libmatroska v1.3.0
Video
ID : 1
Format : AVC
Format/Info : Advanced Video Codec
Format profile : High@L4.1
Format settings, CABAC : Yes
Format settings, ReFrames : 4 frames
Codec ID : V_MPEG4/ISO/AVC
Duration : 1h 39mn
Bit rate : 14.4 Mbps
Width : 1 920 pixels
Height : 1 080 pixels
Display aspect ratio : 16:9
Frame rate mode : Constant
Frame rate : 23.976 fps
Color space : YUV
Chroma subsampling : 4:2:0
Bit depth : 8 bits
Scan type : Progressive
Bits/(Pixel*Frame) : 0.290
Stream size : 10.0 GiB (79%)
Title : Bangkok Dangerous 2008
Writing library : x264 core 135 r2345 f0c1c53
Encoding settings : cabac=1 / ref=4 / deblock=1:-3:-3 / analyse=0x3:0x113 / me=umh / subme=11 / psy=1 / psy_rd=1.00:0.00 / mixed_ref=1 / me_range=24 / chroma_me=1 / trellis=2 / 8x8dct=1 / cqm=0 / deadzone=21,11 / fast_pskip=1 / chroma_qp_offset=-2 / threads=6 / lookahead_threads=1 / sliced_threads=0 / nr=0 / decimate=1 / interlaced=0 / bluray_compat=0 / constrained_intra=0 / bframes=9 / b_pyramid=2 / b_adapt=2 / b_bias=0 / direct=3 / weightb=1 / open_gop=0 / weightp=2 / keyint=250 / keyint_min=23 / scenecut=40 / intra_refresh=0 / rc_lookahead=60 / rc=crf / mbtree=1 / crf=21.0 / qcomp=0.60 / qpmin=0 / qpmax=69 / qpstep=4 / ip_ratio=1.40 / aq=1:1.20
Default : Yes
Forced : No
Audio #1
ID : 2
Format : DTS
Format/Info : Digital Theater Systems
Mode : 16
Format settings, Endianness : Big
Codec ID : A_DTS
Duration : 1h 39mn
Bit rate mode : Constant
Bit rate : 1 509 Kbps
Channel(s) : 6 channels
Channel positions : Front: L C R, Side: L R, LFE
Sampling rate : 48.0 KHz
Bit depth : 16 bits
Compression mode : Lossy
Stream size : 1.05 GiB (8%)
Title : RUS DTS 1509 Kbps 6ch Dub
Language : Russian
Default : Yes
Forced : No
Audio #2
ID : 3
Format : AC-3
Format/Info : Audio Coding 3
Mode extension : CM (complete main)
Format settings, Endianness : Big
Codec ID : A_AC3
Duration : 1h 39mn
Bit rate mode : Constant
Bit rate : 448 Kbps
Channel(s) : 6 channels
Channel positions : Front: L C R, Side: L R, LFE
Sampling rate : 48.0 KHz
Bit depth : 16 bits
Compression mode : Lossy
Stream size : 318 MiB (2%)
Title : RUS AC3 448 Kbps 6ch AVO-Nemakhov
Language : Russian
Default : No
Forced : No
Audio #3
ID : 4
Format : DTS
Format/Info : Digital Theater Systems
Mode : 16
Format settings, Endianness : Big
Codec ID : A_DTS
Duration : 1h 39mn
Bit rate mode : Constant
Bit rate : 1 509 Kbps
Channel(s) : 6 channels
Channel positions : Front: L C R, Side: L R, LFE
Sampling rate : 48.0 KHz
Bit depth : 24 bits
Compression mode : Lossy
Stream size : 1.05 GiB (8%)
Title : ENG DTS 1509 Kbps 6ch original
Language : English
Default : No
Forced : No
Text #1
ID : 5
Format : UTF-8
Codec ID : S_TEXT/UTF8
Codec ID/Info : UTF-8 Plain Text
Title : RUS Subtitles Forced
Language : Russian
Default : Yes
Forced : Yes
Text #2
ID : 6
Format : UTF-8
Codec ID : S_TEXT/UTF8
Codec ID/Info : UTF-8 Plain Text
Title : RUS Subtitles Full
Language : Russian
Default : No
Forced : No
Text #3
ID : 7
Format : UTF-8
Codec ID : S_TEXT/UTF8
Codec ID/Info : UTF-8 Plain Text
Title : ENG Subtitles Full
Language : English
Default : No
Forced : No
Menu
00:00:00.000 : :Chapter 01
00:08:08.530 : :Chapter 02
00:12:36.839 : :Chapter 03
00:20:47.329 : :Chapter 04
00:27:52.546 : :Chapter 05
00:32:45.714 : :Chapter 06
00:40:19.083 : :Chapter 07
00:44:32.962 : :Chapter 08
00:52:11.128 : :Chapter 09
00:59:19.973 : :Chapter 10
01:08:28.396 : :Chapter 11
01:11:33.456 : :Chapter 12
01:18:50.309 : :Chapter 13
01:23:25.459 : :Chapter 14
01:27:13.019 : :Chapter 15
01:31:25.313 : :Chapter 16-x264 [info]: frame I:912 Avg QP:18.01 size:190335
x264 [info]: frame P:31465 Avg QP:21.48 size: 92798
x264 [info]: frame B:110352 Avg QP:23.03 size: 71769
x264 [info]: consecutive B-frames: 2.8% 2.6% 10.9% 14.5% 11.3% 44.1% 7.1% 1.7% 3.8% 1.2%

Скриншот с названием

Скриншоты



Внимание! 28.02.2014 раздача обновлена. Добавлен авторский перевод Юрия Немахова.

_________________
Показать сообщения:    

Текущее время: Сегодня 21:32

Часовой пояс: GMT



Вы не можете начинать темы
Вы не можете отвечать на сообщения
Вы не можете редактировать свои сообщения
Вы не можете удалять свои сообщения
Вы не можете голосовать в опросах
Вы не можете прикреплять файлы к сообщениям
Вы не можете скачивать файлы