Важное объявление!
У Нас Все раздачи мультитрекерные, при нуле пиров в релизах, можете смело вставать на закачку!
 
Автор Сообщение

HUNTER

Стаж:
4 года 4 месяца
Сообщений:
56842

Репутация: 101

[+] [-]
Вне форума [Профиль] [ЛС]

Опасная правда / Антимонополия / Хакеры 3 / Antitrust- -
-Страна: США
Студия: Epsilon Motion Pictures, Hyde Park Entertainment, Metro-Goldwyn-Mayer (MGM)
Жанр: триллер, драма, криминал
Год выпуска: 2000
Продолжительность: 01:48:33-Перевод:
Профессиональный (двухголосый закадровый) Лицензия R5, Видеосервис, роли озвучивали: Леонид Белозорович и Людмила Ильина
Авторский (одноголосый закадровый) Ю. Живов
Авторский (одноголосый закадровый) С. Визгунов
Cубтитры: русские (2 вида), болгарские, чешские, датские, голландские, английские, финские, французские, греческие, венгерские, итальянские, польские, румынские, испанские, шведские, турецкие
Оригинальная аудиодорожка: английский-Режиссер: Питер Хауит / Peter Howitt
В ролях: Райан Филипп, Рэйчел Ли Кук, Клэр Форлани, Тим Роббинс, Дуглас МакФерран, Ричард Раундтри, Тай Рунян, Йи Джи Цо, Нат Душку, Нед Беллами-Описание:
Хочешь знать правду? Будь готов стать мишенью…
Он считал себя везунчиком в то время, как на самом деле находился на краю пропасти. Майло Хоффман, молодой гений-программист, получил престижное место в суперкорпорации мультимедийного магната Гэри Уинстона, этакого Билли Гейтса нового поколения. Перед Хоффманом открылись перспективы роста, герой уже предвкушал блестящую карьеру, когда…- -Бюджет $30 000 000
Сборы в США $11 328 094
Сборы в мире + $6 867 516 = $18 195 610-Тип релиза: HDTVRip 720p (hdbits)
Контейнер: MKV
Видео: 1280x544, 5385 kbps, 23.976 fps
Аудио 1: AC3, 384 Kbps, 6 channels, 48.0 KHz [Профессиональный (двухголосый закадровый) Лицензия R5, Видеосервис]
Аудио 2: AC3, 448 Kbps, 6 channels, 48.0 KHz [Авторский (одноголосый закадровый) Ю. Живов]
Аудио 3: AC3, 448 Kbps, 6 channels, 48.0 KHz [Авторский (одноголосый закадровый) С. Визгунов]
Аудио 4: AC3, 384 Kbps, 6 channels, 48.0 KHz [English]
Формат субтитров: softsub (SRT)-

Дополнительно

Факты о фильме
Другие переводы названия фильма — «Антимонополия», «Хакеры-3».-Награды и номинации
2001 — две премии в «Шанхайском кинофестивале»: лучший фильм (режиссёр Питер Хауитт), лучшая режиссура (Питер Хауитт)
2001 — номинация «Teen Choice Awards»: лучший актёр (Райан Филипп)
2002 — номинация на премию Political Film Society
2001 — номинация на премию World Soundtrack Awards.-Информация о работе над восстановлением аудиодорожки
Аудио дорожка №1 получена наложением чистых студийных голосов на центр декодированного AC3.
Студийные голоса были выкуплены за счет личных средств, а также они были предварительно очищены от шумов и отреставрированы, многократно улучшено качество их звучания.
Качество переданных голосов оставляло желать лучшего, но за 4 дня удалось их полностью вычистить, писались видимо на недорогой микрофон, почти на каждом слове было эдакое "тррррр", по нескольку раз, убрал все это руками с каждой фразы через iZotope RX 3. В общем голоса полностью выпрямлены.
Голоса были перетянуты из PAL в NTSC с помощью eac3to командой -slowdown -no2ndpass без сохранения тона. После перетяжки голоса нормализовались и стало возможным распознать известных актеров дубляжа.
Использование данной аудиодорожки и переливка релиза на другие трекеры допускается только с разрешения автора данной раздачи.
Аудио дорожка №2 и №3 также получены наложением чистых студийных голосов на центр декодированного AC3.
Дорожка с переводом Юрия Живова предоставлена и собрана пользователем Синта Рурони, а дорожка с переводом Сергея Визгунова предоставлена собрана и пользователем Масти.
Данные дорожки добавлены временно, до появления на руках чистых голосов. После этого выполню качественную реставрацию голоса и пересборку дорожек.
За синхронизацию без пережатия в WAV текущих версий (временных) дорожек Сергея Визгунова и Юрия Живова благодарим пользователя Синта Рурони.-Роли озвучивали
Роли озвучивали 2 невероятных и потрясающих актеров: Леонид Белозорович и Людмила Ильина.
В дубляже на кинопоиске у обоих актеров почти по 300 фильмов, и это только дубляж, закадра у них я уверен раз в 10-20 больше. Людмилу Ильину я лично слышу чуть ли не в каждом третьем фильме в закадровой озвучке, и зачастую ее всегда ставят на все женские роли, что во французских фильмах, что в артхаусе, невероятная на самом деле актриса, посмотрите к примеру как она вытянула все женские роли в сериале Пропавший. Все мужские роли и закадровый текст озвучил не менее потрясающий актер Леонид Белозорович. Этого актера мы можем хорошо помнить по его выдающимся дубляжным работам, например нельзя не отметить как он продублировал Гая Пирса в роли Леонарда в фильме Помни (Memento).
Во всех раздачах на рутрекере данный перевод именуют многоголосным, но это и не удивительно, я первые 2 дня реставрации голоса сам был уверен что есть второй мужской голос, но потом в этом сам разубедился. Русские актеры играют голосом очень хорошо.

-

Скриншоты


-

MediaInfo

Общее
Полное имя : Antitrust.HDTVRip.720p.by.John.Doe.for.Rutracker.org.mkv
Формат : Matroska
Версия формата : Version 4 / Version 2
Размер файла : 5,35 Гбайт
Продолжительность : 1 ч. 48 м.
Общий поток : 7046 Кбит/сек
Название фильма : Antitrust (2000) - Release by John Doe for Rutracker.org
Дата кодирования : UTC 2014-02-18 21:33:45
Программа кодирования : mkvmerge v6.7.0 ('Back to the Ground') 32bit built on Jan 8 2014 15:03:17
Библиотека кодирования : libebml v1.3.0 + libmatroska v1.4.1
Видео
Идентификатор : 1
Формат : AVC
Формат/Информация : Advanced Video Codec
Профиль формата : High@L5.1
Параметр CABAC формата : Да
Параметр ReFrames формата : 9 кадров
Идентификатор кодека : V_MPEG4/ISO/AVC
Продолжительность : 1 ч. 48 м.
Битрейт : 5385 Кбит/сек
Ширина : 1280 пикселей
Высота : 544 пикселя
Соотношение сторон : 2,35:1
Режим частоты кадров : Постоянный
Частота кадров : 23,976 кадра/сек
Цветовое пространство : YUV
Субдискретизация насыщенности : 4:2:0
Битовая глубина : 8 бит
Тип развёртки : Прогрессивная
Бит/(Пиксели*Кадры) : 0.323
Размер потока : 3,98 Гбайт (74%)
Заголовок : Antitrust - Release by John Doe for Rutracker.org
Библиотека кодирования : x264 core 54 svn-601
Настройки программы : cabac=1 / ref=6 / deblock=1:0:0 / analyse=0x3:0x133 / me=umh / subme=7 / brdo=1 / mixed_ref=1 / me_range=16 / chroma_me=1 / trellis=1 / 8x8dct=1 / cqm=0 / deadzone=21,11 / chroma_qp_offset=0 / slices=2 / nr=0 / decimate=1 / mbaff=0 / bframes=3 / b_pyramid=1 / b_adapt=1 / b_bias=0 / direct=1 / wpredb=1 / bime=1 / keyint=250 / keyint_min=25 / scenecut=40 / rc=2pass / bitrate=5385 / ratetol=1.0 / rceq='blurCplx^(1-qComp)' / qcomp=0.60 / qpmin=10 / qpmax=51 / qpstep=4 / cplxblur=20.0 / qblur=0.5 / ip_ratio=1.40 / pb_ratio=1.30 / zones
Язык : English
Default : Да
Forced : Нет
Аудио #1
Идентификатор : 2
Формат : AC-3
Формат/Информация : Audio Coding 3
Расширение режима : CM (complete main)
Параметр Endianness формата : Big
Идентификатор кодека : A_AC3
Продолжительность : 1 ч. 48 м.
Вид битрейта : Постоянный
Битрейт : 384 Кбит/сек
Каналы : 6 каналов
Расположение каналов : Front: L C R, Side: L R, LFE
Частота : 48,0 КГц
Битовая глубина : 16 бит
Метод сжатия : С потерями
Размер потока : 299 Мбайт (5%)
Заголовок : Russian
Язык : Russian
Default : Да
Forced : Нет
Аудио #2
Идентификатор : 3
Формат : AC-3
Формат/Информация : Audio Coding 3
Расширение режима : CM (complete main)
Параметр Endianness формата : Big
Идентификатор кодека : A_AC3
Продолжительность : 1 ч. 48 м.
Вид битрейта : Постоянный
Битрейт : 448 Кбит/сек
Каналы : 6 каналов
Расположение каналов : Front: L C R, Side: L R, LFE
Частота : 48,0 КГц
Битовая глубина : 16 бит
Метод сжатия : С потерями
Размер потока : 348 Мбайт (6%)
Заголовок : Ю. Живов
Язык : Russian
Default : Нет
Forced : Нет
Аудио #3
Идентификатор : 4
Формат : AC-3
Формат/Информация : Audio Coding 3
Расширение режима : CM (complete main)
Параметр Endianness формата : Big
Идентификатор кодека : A_AC3
Продолжительность : 1 ч. 48 м.
Вид битрейта : Постоянный
Битрейт : 448 Кбит/сек
Каналы : 6 каналов
Расположение каналов : Front: L C R, Side: L R, LFE
Частота : 48,0 КГц
Битовая глубина : 16 бит
Метод сжатия : С потерями
Размер потока : 348 Мбайт (6%)
Заголовок : С. Визгунов
Язык : Russian
Default : Нет
Forced : Нет
Аудио #4
Идентификатор : 5
Формат : AC-3
Формат/Информация : Audio Coding 3
Расширение режима : CM (complete main)
Параметр Endianness формата : Big
Идентификатор кодека : A_AC3
Продолжительность : 1 ч. 48 м.
Вид битрейта : Постоянный
Битрейт : 384 Кбит/сек
Каналы : 6 каналов
Расположение каналов : Front: L C R, Side: L R, LFE
Частота : 48,0 КГц
Битовая глубина : 16 бит
Метод сжатия : С потерями
Размер потока : 299 Мбайт (5%)
Заголовок : English
Язык : English
Default : Нет
Forced : Нет
Текст #1
Идентификатор : 6
Формат : UTF-8
Идентификатор кодека : S_TEXT/UTF8
Идентификатор кодека/Информация : UTF-8 Plain Text
Заголовок : Russian
Язык : Russian
Default : Нет
Forced : Нет
Текст #2
Идентификатор : 7
Формат : UTF-8
Идентификатор кодека : S_TEXT/UTF8
Идентификатор кодека/Информация : UTF-8 Plain Text
Заголовок : Russian
Язык : Russian
Default : Нет
Forced : Нет
Текст #3
Идентификатор : 8
Формат : UTF-8
Идентификатор кодека : S_TEXT/UTF8
Идентификатор кодека/Информация : UTF-8 Plain Text
Default : Нет
Forced : Нет
Текст #4
Идентификатор : 9
Формат : UTF-8
Идентификатор кодека : S_TEXT/UTF8
Идентификатор кодека/Информация : UTF-8 Plain Text
Default : Нет
Forced : Нет
Текст #5
Идентификатор : 10
Формат : UTF-8
Идентификатор кодека : S_TEXT/UTF8
Идентификатор кодека/Информация : UTF-8 Plain Text
Default : Нет
Forced : Нет
Текст #6
Идентификатор : 11
Формат : UTF-8
Идентификатор кодека : S_TEXT/UTF8
Идентификатор кодека/Информация : UTF-8 Plain Text
Default : Нет
Forced : Нет
Текст #7
Идентификатор : 12
Формат : UTF-8
Идентификатор кодека : S_TEXT/UTF8
Идентификатор кодека/Информация : UTF-8 Plain Text
Default : Нет
Forced : Нет
Текст #8
Идентификатор : 13
Формат : UTF-8
Идентификатор кодека : S_TEXT/UTF8
Идентификатор кодека/Информация : UTF-8 Plain Text
Default : Нет
Forced : Нет
Текст #9
Идентификатор : 14
Формат : UTF-8
Идентификатор кодека : S_TEXT/UTF8
Идентификатор кодека/Информация : UTF-8 Plain Text
Default : Нет
Forced : Нет
Текст #10
Идентификатор : 15
Формат : UTF-8
Идентификатор кодека : S_TEXT/UTF8
Идентификатор кодека/Информация : UTF-8 Plain Text
Default : Нет
Forced : Нет
Текст #11
Идентификатор : 16
Формат : UTF-8
Идентификатор кодека : S_TEXT/UTF8
Идентификатор кодека/Информация : UTF-8 Plain Text
Default : Нет
Forced : Нет
Текст #12
Идентификатор : 17
Формат : UTF-8
Идентификатор кодека : S_TEXT/UTF8
Идентификатор кодека/Информация : UTF-8 Plain Text
Default : Нет
Forced : Нет
Текст #13
Идентификатор : 18
Формат : UTF-8
Идентификатор кодека : S_TEXT/UTF8
Идентификатор кодека/Информация : UTF-8 Plain Text
Default : Нет
Forced : Нет
Текст #14
Идентификатор : 19
Формат : UTF-8
Идентификатор кодека : S_TEXT/UTF8
Идентификатор кодека/Информация : UTF-8 Plain Text
Default : Нет
Forced : Нет
Текст #15
Идентификатор : 20
Формат : UTF-8
Идентификатор кодека : S_TEXT/UTF8
Идентификатор кодека/Информация : UTF-8 Plain Text
Default : Нет
Forced : Нет
Текст #16
Идентификатор : 21
Формат : UTF-8
Идентификатор кодека : S_TEXT/UTF8
Идентификатор кодека/Информация : UTF-8 Plain Text
Default : Нет
Forced : Нет
Текст #17
Идентификатор : 22
Формат : UTF-8
Идентификатор кодека : S_TEXT/UTF8
Идентификатор кодека/Информация : UTF-8 Plain Text
Default : Нет
Forced : Нет
Текст #18
Идентификатор : 23
Формат : UTF-8
Идентификатор кодека : S_TEXT/UTF8
Идентификатор кодека/Информация : UTF-8 Plain Text
Default : Нет
Forced : Нет

Альтернативные постеры и обложки

Альтернативный постер #1

Альтернативный постер #2

Альтернативный постер #3

Альтернативный постер #4

Альтернативное оформление раздачи

-Страна: США
Студия: Epsilon Motion Pictures, Hyde Park Entertainment, Metro-Goldwyn-Mayer (MGM)
Жанр: триллер, драма, криминал
Год выпуска: 2000
Продолжительность: 01:48:33-Перевод: Профессиональный (двухголосый закадровый) Лицензия R5, Видеосервис
Роли озвучивали: Леонид Белозорович и Людмила Ильина
Cубтитры: русские (2 вида), болгарские, чешские, датские, голландские, английские, финские, французские, греческие, венгерские, итальянские, польские, румынские, испанские, шведские, турецкие
Оригинальная аудиодорожка: английский-Режиссер: Питер Хауит / Peter Howitt
В ролях: Райан Филипп, Рэйчел Ли Кук, Клэр Форлани, Тим Роббинс, Дуглас МакФерран, Ричард Раундтри, Тай Рунян, Йи Джи Цо, Нат Душку, Нед Беллами-Описание:
Хочешь знать правду? Будь готов стать мишенью…
Он считал себя везунчиком в то время, как на самом деле находился на краю пропасти. Майло Хоффман, молодой гений-программист, получил престижное место в суперкорпорации мультимедийного магната Гэри Уинстона, этакого Билли Гейтса нового поколения. Перед Хоффманом открылись перспективы роста, герой уже предвкушал блестящую карьеру, когда…- -Бюджет $30 000 000
Сборы в США $11 328 094
Сборы в мире + $6 867 516 = $18 195 610-Тип релиза: HDTVRip 720p (hdbits)
Контейнер: MKV
Видео: 1280x544, 5385 kbps, 23.976 fps
Аудио 1: AC3, 384 Kbps, 6 channels, 48.0 KHz [Профессиональный (двухголосый закадровый) Лицензия R5, Видеосервис]
Аудио 2: AC3, 384 Kbps, 6 channels, 48.0 KHz [English]
Формат субтитров: softsub (SRT)-
-Факты о фильме
Другие переводы названия фильма — «Антимонополия», «Хакеры-3».-Награды и номинации
2001 — две премии в «Шанхайском кинофестивале»: лучший фильм (режиссёр Питер Хауитт), лучшая режиссура (Питер Хауитт)
2001 — номинация «Teen Choice Awards»: лучший актёр (Райан Филипп)
2002 — номинация на премию Political Film Society
2001 — номинация на премию World Soundtrack Awards.-Информация о работе над восстановлением аудиодорожки
Аудио дорожка №1 получена наложением чистых студийных голосов на центр декодированного AC3.
Студийные голоса были выкуплены за счет личных средств, а также они были предварительно очищены от шумов и отреставрированы, многократно улучшено качество их звучания.
Качество переданных голосов оставляло желать лучшего, но за 4 дня удалось их полностью вычистить, писались видимо на недорогой микрофон, почти на каждом слове было эдакое "тррррр", по нескольку раз, убрал все это руками с каждой фразы через iZotope RX 3. В общем голоса полностью выпрямлены.
Голоса были перетянуты из PAL в NTSC с помощью eac3to командой -slowdown -no2ndpass без сохранения тона. После перетяжки голоса нормализовались и стало возможным распознать известных актеров дубляжа.
Использование данной аудиодорожки и переливка релиза на другие трекеры допускается только с разрешения автора данной раздачи.
Аудио дорожка №2 и №3 также получены наложением чистых студийных голосов на центр декодированного AC3.
Дорожка с переводом Юрия Живова предоставлена и собрана пользователем Синта Рурони, а дорожка с переводом Сергея Визгунова предоставлена собрана и пользователем Масти.
Данные дорожки добавлены временно, до появления на руках чистых голосов. После этого выполню качественную реставрацию голоса и пересборку дорожек.
За синхронизацию без пережатия в WAV текущих версий (временных) дорожек Сергея Визгунова и Юрия Живова благодарим пользователя Синта Рурони.-Роли озвучивали
Роли озвучивали 2 невероятных и потрясающих актеров: Леонид Белозорович и Людмила Ильина
В дубляже на кинопоиске у обоих актеров почти по 300 фильмов, и жэто только дубляж, закадра у них я уверен раз в 10-20 больше. Людмилу Ильину я лично слышу чуть ли не в каждом третьем фильме в закадровой озвучке, и зачастую ее всегда ставят на все женские роли, что во франзузских фильмах, что в артхаусе, невероятная на самом деле актриса, посмотрите к примеру как она вытянула все женские роли в сериале Тревелер. Все мужские роли и закадровый текст озвучил не менее потрясающий актер Леонид Белозорович. Этого актера мы можем хорошо помнить по его выдающимся дубляжным работам, например нельзя не отметить как он продублировал Гая Пирса в роле Леонарда в фильме Помни (Memento).
Во всех раздачах на рутрекере данный перевод именуют многоголосным, но это и не удивительно, я первые 2 дня реставрации голоса сам был уверен что есть второй мужской голос, но потом в этом сам разубедился. Русские актеры играют голосом очень хорошо.-
-

MediaInfo

Общее
Полное имя : Antitrust.HDTVRip.720p.by.John.Doe.for.Rutracker.org.mkv
Формат : Matroska
Версия формата : Version 4 / Version 2
Размер файла : 5,35 Гбайт
Продолжительность : 1 ч. 48 м.
Общий поток : 7046 Кбит/сек
Название фильма : Antitrust (2000) - Release by John Doe for Rutracker.org
Дата кодирования : UTC 2014-02-18 21:33:45
Программа кодирования : mkvmerge v6.7.0 ('Back to the Ground') 32bit built on Jan 8 2014 15:03:17
Библиотека кодирования : libebml v1.3.0 + libmatroska v1.4.1
Видео
Идентификатор : 1
Формат : AVC
Формат/Информация : Advanced Video Codec
Профиль формата : High@L5.1
Параметр CABAC формата : Да
Параметр ReFrames формата : 9 кадров
Идентификатор кодека : V_MPEG4/ISO/AVC
Продолжительность : 1 ч. 48 м.
Битрейт : 5385 Кбит/сек
Ширина : 1280 пикселей
Высота : 544 пикселя
Соотношение сторон : 2,35:1
Режим частоты кадров : Постоянный
Частота кадров : 23,976 кадра/сек
Цветовое пространство : YUV
Субдискретизация насыщенности : 4:2:0
Битовая глубина : 8 бит
Тип развёртки : Прогрессивная
Бит/(Пиксели*Кадры) : 0.323
Размер потока : 3,98 Гбайт (74%)
Заголовок : Antitrust - Release by John Doe for Rutracker.org
Библиотека кодирования : x264 core 54 svn-601
Настройки программы : cabac=1 / ref=6 / deblock=1:0:0 / analyse=0x3:0x133 / me=umh / subme=7 / brdo=1 / mixed_ref=1 / me_range=16 / chroma_me=1 / trellis=1 / 8x8dct=1 / cqm=0 / deadzone=21,11 / chroma_qp_offset=0 / slices=2 / nr=0 / decimate=1 / mbaff=0 / bframes=3 / b_pyramid=1 / b_adapt=1 / b_bias=0 / direct=1 / wpredb=1 / bime=1 / keyint=250 / keyint_min=25 / scenecut=40 / rc=2pass / bitrate=5385 / ratetol=1.0 / rceq='blurCplx^(1-qComp)' / qcomp=0.60 / qpmin=10 / qpmax=51 / qpstep=4 / cplxblur=20.0 / qblur=0.5 / ip_ratio=1.40 / pb_ratio=1.30 / zones
Язык : English
Default : Да
Forced : Нет
Аудио #1
Идентификатор : 2
Формат : AC-3
Формат/Информация : Audio Coding 3
Расширение режима : CM (complete main)
Параметр Endianness формата : Big
Идентификатор кодека : A_AC3
Продолжительность : 1 ч. 48 м.
Вид битрейта : Постоянный
Битрейт : 384 Кбит/сек
Каналы : 6 каналов
Расположение каналов : Front: L C R, Side: L R, LFE
Частота : 48,0 КГц
Битовая глубина : 16 бит
Метод сжатия : С потерями
Размер потока : 299 Мбайт (5%)
Заголовок : Russian
Язык : Russian
Default : Да
Forced : Нет
Аудио #2
Идентификатор : 3
Формат : AC-3
Формат/Информация : Audio Coding 3
Расширение режима : CM (complete main)
Параметр Endianness формата : Big
Идентификатор кодека : A_AC3
Продолжительность : 1 ч. 48 м.
Вид битрейта : Постоянный
Битрейт : 448 Кбит/сек
Каналы : 6 каналов
Расположение каналов : Front: L C R, Side: L R, LFE
Частота : 48,0 КГц
Битовая глубина : 16 бит
Метод сжатия : С потерями
Размер потока : 348 Мбайт (6%)
Заголовок : Ю. Живов
Язык : Russian
Default : Нет
Forced : Нет
Аудио #3
Идентификатор : 4
Формат : AC-3
Формат/Информация : Audio Coding 3
Расширение режима : CM (complete main)
Параметр Endianness формата : Big
Идентификатор кодека : A_AC3
Продолжительность : 1 ч. 48 м.
Вид битрейта : Постоянный
Битрейт : 448 Кбит/сек
Каналы : 6 каналов
Расположение каналов : Front: L C R, Side: L R, LFE
Частота : 48,0 КГц
Битовая глубина : 16 бит
Метод сжатия : С потерями
Размер потока : 348 Мбайт (6%)
Заголовок : С. Визгунов
Язык : Russian
Default : Нет
Forced : Нет
Аудио #4
Идентификатор : 5
Формат : AC-3
Формат/Информация : Audio Coding 3
Расширение режима : CM (complete main)
Параметр Endianness формата : Big
Идентификатор кодека : A_AC3
Продолжительность : 1 ч. 48 м.
Вид битрейта : Постоянный
Битрейт : 384 Кбит/сек
Каналы : 6 каналов
Расположение каналов : Front: L C R, Side: L R, LFE
Частота : 48,0 КГц
Битовая глубина : 16 бит
Метод сжатия : С потерями
Размер потока : 299 Мбайт (5%)
Заголовок : English
Язык : English
Default : Нет
Forced : Нет
Текст #1
Идентификатор : 6
Формат : UTF-8
Идентификатор кодека : S_TEXT/UTF8
Идентификатор кодека/Информация : UTF-8 Plain Text
Заголовок : Russian
Язык : Russian
Default : Нет
Forced : Нет
Текст #2
Идентификатор : 7
Формат : UTF-8
Идентификатор кодека : S_TEXT/UTF8
Идентификатор кодека/Информация : UTF-8 Plain Text
Заголовок : Russian
Язык : Russian
Default : Нет
Forced : Нет
Текст #3
Идентификатор : 8
Формат : UTF-8
Идентификатор кодека : S_TEXT/UTF8
Идентификатор кодека/Информация : UTF-8 Plain Text
Default : Нет
Forced : Нет
Текст #4
Идентификатор : 9
Формат : UTF-8
Идентификатор кодека : S_TEXT/UTF8
Идентификатор кодека/Информация : UTF-8 Plain Text
Default : Нет
Forced : Нет
Текст #5
Идентификатор : 10
Формат : UTF-8
Идентификатор кодека : S_TEXT/UTF8
Идентификатор кодека/Информация : UTF-8 Plain Text
Default : Нет
Forced : Нет
Текст #6
Идентификатор : 11
Формат : UTF-8
Идентификатор кодека : S_TEXT/UTF8
Идентификатор кодека/Информация : UTF-8 Plain Text
Default : Нет
Forced : Нет
Текст #7
Идентификатор : 12
Формат : UTF-8
Идентификатор кодека : S_TEXT/UTF8
Идентификатор кодека/Информация : UTF-8 Plain Text
Default : Нет
Forced : Нет
Текст #8
Идентификатор : 13
Формат : UTF-8
Идентификатор кодека : S_TEXT/UTF8
Идентификатор кодека/Информация : UTF-8 Plain Text
Default : Нет
Forced : Нет
Текст #9
Идентификатор : 14
Формат : UTF-8
Идентификатор кодека : S_TEXT/UTF8
Идентификатор кодека/Информация : UTF-8 Plain Text
Default : Нет
Forced : Нет
Текст #10
Идентификатор : 15
Формат : UTF-8
Идентификатор кодека : S_TEXT/UTF8
Идентификатор кодека/Информация : UTF-8 Plain Text
Default : Нет
Forced : Нет
Текст #11
Идентификатор : 16
Формат : UTF-8
Идентификатор кодека : S_TEXT/UTF8
Идентификатор кодека/Информация : UTF-8 Plain Text
Default : Нет
Forced : Нет
Текст #12
Идентификатор : 17
Формат : UTF-8
Идентификатор кодека : S_TEXT/UTF8
Идентификатор кодека/Информация : UTF-8 Plain Text
Default : Нет
Forced : Нет
Текст #13
Идентификатор : 18
Формат : UTF-8
Идентификатор кодека : S_TEXT/UTF8
Идентификатор кодека/Информация : UTF-8 Plain Text
Default : Нет
Forced : Нет
Текст #14
Идентификатор : 19
Формат : UTF-8
Идентификатор кодека : S_TEXT/UTF8
Идентификатор кодека/Информация : UTF-8 Plain Text
Default : Нет
Forced : Нет
Текст #15
Идентификатор : 20
Формат : UTF-8
Идентификатор кодека : S_TEXT/UTF8
Идентификатор кодека/Информация : UTF-8 Plain Text
Default : Нет
Forced : Нет
Текст #16
Идентификатор : 21
Формат : UTF-8
Идентификатор кодека : S_TEXT/UTF8
Идентификатор кодека/Информация : UTF-8 Plain Text
Default : Нет
Forced : Нет
Текст #17
Идентификатор : 22
Формат : UTF-8
Идентификатор кодека : S_TEXT/UTF8
Идентификатор кодека/Информация : UTF-8 Plain Text
Default : Нет
Forced : Нет
Текст #18
Идентификатор : 23
Формат : UTF-8
Идентификатор кодека : S_TEXT/UTF8
Идентификатор кодека/Информация : UTF-8 Plain Text
Default : Нет
Forced : Нет

Альтернативные постеры и обложки

Альтернативный постер #1

Альтернативный постер #2

Альтернативный постер #3

Альтернативный постер #4

DVD Cover #1

DVD Cover #2

DVD Cover #3

Материалы, использованные для оформления раздачи

Материалы использованные для создания иллюстрации в шапке

Для создания иллюстрации в шапке за основу использовалась афиша к фильму, которая предназначалась для наружной уличной расклейки.
Все остальные составляющие были отрисованы от руки в Adobe Photoshop.

Афиша, источник #1

Афиша, источник #2

Материалы, использованные для создания постера Эксклюзивно для RUTRACKER.ORG

Для постера за основу использовался один из официальных промопостеров, но в другой цветовой расцветке.
Персонажи были вырезаны, обработаны, выполнена цветокоррекция и стилизация под оформление раздачи.

Исходный постер


_________________
Показать сообщения:    

Текущее время: Сегодня 18:29

Часовой пояс: GMT



Вы не можете начинать темы
Вы не можете отвечать на сообщения
Вы не можете редактировать свои сообщения
Вы не можете удалять свои сообщения
Вы не можете голосовать в опросах
Вы не можете прикреплять файлы к сообщениям
Вы не можете скачивать файлы
Наши партнеры: интернет магазин Ивановского трикотажа textilla.ru