Важное объявление!
У Нас Все раздачи мультитрекерные, при нуле пиров в релизах, можете смело вставать на закачку!
 
Автор Сообщение

HUNTER

Стаж:
4 года 4 месяца
Сообщений:
56842

Репутация: 101

[+] [-]
Вне форума [Профиль] [ЛС]

Они побежали вот туда и вот туда / They Went That-A-Way & That-A-Way-Страна: США
Студия: The International Picture Show Company, Filmway Associates
Жанр: Комедия
Год выпуска: 1978
Продолжительность: 01:43:11-Перевод: Профессиональный (двухголосый закадровый) НТВ+ /Ольга Плетнёва, Александр Котов/
Cубтитры: нет
Оригинальная аудиодорожка: английский-Режиссер: Стюарт Э. МакГоун / Stuart E. McGowan, Эдвард Монтань / Edward Montagne
В ролях: Тим Конуэй, Чак МакКанн, Джо Дорси, Фред Ковингтон, Даб Тейлор, Рени Сантони, Сонни Шроер, Чарльз Френзен, Бен Джонс, Ленни Монтана- | Релиз: -Описание: Двое полицейских из маленького городка по инициативе губернатора под видом бандитов садятся в тюрьму. Едва операция начинается, губернатор умирает, и двое несчастных служителей закона так и остаются в тюрьме....-Семпл: http://sendfile.su/1138323-Тип релиза: HDTV 1080i
Контейнер: TS
Видео: 1920x1080i (16:9), 25.000 fps, AVC, ~8299 Kbps, 0.160 bits/pixel
Аудио 1: Русский, 48.0 KHz, MPEG-1 Audio layer 2, 2 ch, 192 kbps
Аудио 2: English, 48.0 KHz, MPEG-1 Audio layer 2, 2 ch, 192 kbps

MediaInfo

GeneralID : 1 (0x1)Complete name : They Went That-A-Way & That-A-Way 1978 MGMHD 1080i.rus.eng.tsFormat : MPEG-TSFile size : 6.59 GiBDuration : 1h 43mnOverall bit rate mode : VariableOverall bit rate : 9 139 KbpsMaximum Overall bit rate : 35.5 Mbps
VideoID : 4113 (0x1011)Menu ID : 1 (0x1)Format : AVCFormat/Info : Advanced Video CodecFormat profile : Main@L4Format settings, CABAC : YesFormat settings, ReFrames : 4 framesCodec ID : 27Duration : 1h 43mnBit rate : 8 299 KbpsWidth : 1 920 pixelsHeight : 1 080 pixelsDisplay aspect ratio : 16:9Frame rate : 25.000 fpsStandard : ComponentColor space : YUVChroma subsampling : 4:2:0Bit depth : 8 bitsScan type : InterlacedScan order : Top Field FirstBits/(Pixel*Frame) : 0.160Stream size : 5.98 GiB (91%)Color range : LimitedColor primaries : BT.709Transfer characteristics : BT.709Matrix coefficients : BT.709
Audio #1ID : 4352 (0x1100)Menu ID : 1 (0x1)Format : MPEG AudioFormat version : Version 1Format profile : Layer 2Codec ID : 4Duration : 1h 43mnBit rate mode : ConstantBit rate : 192 KbpsChannel(s) : 2 channelsSampling rate : 48.0 KHzCompression mode : LossyStream size : 142 MiB (2%)Language : Russian
Audio #2ID : 4353 (0x1101)Menu ID : 1 (0x1)Format : MPEG AudioFormat version : Version 1Format profile : Layer 2Codec ID : 4Duration : 1h 43mnBit rate mode : ConstantBit rate : 192 KbpsChannel(s) : 2 channelsSampling rate : 48.0 KHzCompression mode : LossyStream size : 142 MiB (2%)Language : English

Скриншоты


_________________
Показать сообщения:    

Текущее время: Сегодня 09:18

Часовой пояс: GMT



Вы не можете начинать темы
Вы не можете отвечать на сообщения
Вы не можете редактировать свои сообщения
Вы не можете удалять свои сообщения
Вы не можете голосовать в опросах
Вы не можете прикреплять файлы к сообщениям
Вы не можете скачивать файлы