Важное объявление!
У Нас Все раздачи мультитрекерные, при нуле пиров в релизах, можете смело вставать на закачку!
 
Автор Сообщение

HUNTER

Стаж:
4 года 4 месяца
Сообщений:
56842

Репутация: 101

[+] [-]
Вне форума [Профиль] [ЛС]

Он сказал, она сказала / He Said, She Said
-Страна: США
Жанр: комедия, драма, мелодрама
Год выпуска: 1991
Продолжительность: 01:55:44-Перевод 1: Профессиональный (многоголосый, закадровый) Pramount channel
Перевод 2: Профессиональный (многоголосый, закадровый) 5 Канал
Cубтитры: английские
Оригинальная аудиодорожка: английский-Режиссер: Кен Куопис / Ken Kwapis-В ролях: Кевин Бейкон, Элизабет Перкинс, Нэйтан Лейн, Энтони ЛаПалья, Шэрон Стоун, Стенли Андерсон, Чарлэйн Вудард, Дэнтон Стоун, Фил Лидс, Рита Карин-Описание:
Дэн Хэнсон и Лори Брайер – журналисты. Он придерживается радикальных взглядов, она наоборот – убежденная либералка, но оба метят на должность газетного колумниста.
Понаблюдав за их отчаянной борьбой, телевизионный продюсер предлагает непримиримым конкурентам вести передачу под названием «Он сказал, она сказала», где журналисты смогут спорить по любому поводу, доказывая свою правоту.
Но от жарких споров до служебного романа, как известно, всего один шаг. Если только Дэну и Лори удастся хоть ненадолго забыть о своих убеждениях...-Сэмпл: Скачать-Тип релиза: WEB-DL 720p
Контейнер: MKV-Видео: 1280x532 (2.40:1); 3 906 Kbps; 23.976 fps; 0.239 bpp
Аудио 1: Russian; AC3; 48.0 KHz; 2ch; 192 Kbps MVO
Аудио 2: Russian; AC3; 48.0 KHz; 2ch; 192 Kbps MVO
Аудио 3: English; AC3; 48.0 KHz; 6ch; 384 Kbps

MediaInfo

Format : Matroska
Format version : Version 4 / Version 2
File size : 3.86 GiB
Duration : 1h 55mn
Overall bit rate : 4 769 Kbps
Encoded date : UTC 2015-08-06 15:49:48
Writing application : mkvmerge v8.1.0 ('Psychedelic Postcard') 64bit
Writing library : libebml v1.3.1 + libmatroska v1.4.2
Attachements : poster.jpg
DURATION : 01:55:43.104000000
NUMBER_OF_FRAMES : 216972
NUMBER_OF_BYTES : 166634496
_STATISTICS_WRITING_APP : mkvmerge v8.1.0 ('Psychedelic Postcard') 64bit
_STATISTICS_WRITING_DATE_UTC : 2015-08-06 15:49:48
_STATISTICS_TAGS : BPS DURATION NUMBER_OF_FRAMES NUMBER_OF_BYTES
Video
ID : 1
Format : AVC
Format/Info : Advanced Video Codec
Format profile : Main@L3.1
Format settings, CABAC : No
Format settings, ReFrames : 2 frames
Codec ID : V_MPEG4/ISO/AVC
Duration : 1h 55mn
Bit rate : 3 906 Kbps
Width : 1 280 pixels
Height : 532 pixels
Display aspect ratio : 2.40:1
Frame rate mode : Constant
Frame rate : 23.976 fps
Color space : YUV
Chroma subsampling : 4:2:0
Bit depth : 8 bits
Scan type : Progressive
Bits/(Pixel*Frame) : 0.239
Stream size : 3.16 GiB (82%)
Language : English
Default : Yes
Forced : No
Color primaries : BT.709
Transfer characteristics : BT.709
Matrix coefficients : BT.709
Audio #1
ID : 2
Format : AC-3
Format/Info : Audio Coding 3
Mode extension : CM (complete main)
Format settings, Endianness : Big
Codec ID : A_AC3
Duration : 1h 55mn
Bit rate mode : Constant
Bit rate : 192 Kbps
Channel(s) : 2 channels
Channel positions : Front: L R
Sampling rate : 48.0 KHz
Bit depth : 16 bits
Compression mode : Lossy
Stream size : 159 MiB (4%)
Title : MVO Pramount channel
Language : Russian
Default : Yes
Forced : No
Audio #2
ID : 3
Format : AC-3
Format/Info : Audio Coding 3
Mode extension : CM (complete main)
Format settings, Endianness : Big
Codec ID : A_AC3
Duration : 1h 55mn
Bit rate mode : Constant
Bit rate : 192 Kbps
Channel(s) : 2 channels
Channel positions : Front: L R
Sampling rate : 48.0 KHz
Bit depth : 16 bits
Compression mode : Lossy
Stream size : 159 MiB (4%)
Title : MVO 5 Канал
Language : Russian
Default : No
Forced : No
Audio #3
ID : 4
Format : AC-3
Format/Info : Audio Coding 3
Mode extension : CM (complete main)
Format settings, Endianness : Big
Codec ID : A_AC3
Duration : 1h 55mn
Bit rate mode : Constant
Bit rate : 384 Kbps
Channel(s) : 6 channels
Channel positions : Front: L C R, Side: L R, LFE
Sampling rate : 48.0 KHz
Bit depth : 16 bits
Compression mode : Lossy
Stream size : 318 MiB (8%)
Language : English
Default : No
Forced : No
Text
ID : 5
Format : UTF-8
Codec ID : S_TEXT/UTF8
Codec ID/Info : UTF-8 Plain Text
Title : CC
Language : English
Default : No
Forced : No

Скриншоты


_________________
Показать сообщения:    

Текущее время: Сегодня 14:39

Часовой пояс: GMT



Вы не можете начинать темы
Вы не можете отвечать на сообщения
Вы не можете редактировать свои сообщения
Вы не можете удалять свои сообщения
Вы не можете голосовать в опросах
Вы не можете прикреплять файлы к сообщениям
Вы не можете скачивать файлы