Важное объявление!
У Нас Все раздачи мультитрекерные, при нуле пиров в релизах, можете смело вставать на закачку!
 
Автор Сообщение

HUNTER

Стаж:
4 года 4 месяца
Сообщений:
56853

Репутация: 101

[+] [-]
Вне форума [Профиль] [ЛС]

-Он – дракон
He is Dragon

«Любить страшно»
-
Год выпуска: 2015
Страна: Россия (Splendid Film, Фонд Кино, Bazelevs)
Жанр: Фэнтези, Мелодрама
Продолжительность: 01:47:27
Перевод: Не требуется
Режиссер: Индар Джендубаев
Генеральный продюсер: Тимур Бекмамбетов-Роли исполняли:

Мирослава - Мария Поезжаева
Арман - Матвей Лыков
Князь - Станислав Любшин
Ярослава - Иева Андреевайте
Игорь - Петр Романов
Кормчий - Андрей Лебединский
Отец Армана - Егор Зубарчук
Невеста 1 - Виктория Рунцова
Невеста 2 - Анастасия Дубровина
Невеста 3 - Алена Чехова
-Описание: В разгар свадьбы княжну Мирославу похищает дракон, унося в свой замок на острове. В прошлом остались родные, жених, теперь только каменный плен в компании прекрасного Армана. Но кто он, и как оказался на острове? Мира поймет это слишком поздно: любовь к нему, человеку-дракону, откроет ей горькую истину — любить страшно.-Доп.инфо: Для сомневающихся в достаточности битрейта видео, лог кодирования внизу под спойлером.
Временами картинка мутноватая - так было на исходном БД.-Премьера: 4 декабря 2015 (3 декабря 2015)
Релиз на Blu-Ray (DVD) (Россия): 4 февраля 2016

[img]https://rating.kinopoisk.ru/840258.gif[/img].
-Качество: BDRip (by Ash61) (с BD 3D Ger)
Контейнер: MKV
Формат 3D: Half OverUnder / Вертикальная анаморфная стереопара
Порядок ракурсов: левый ракурс первый-Видео: AVC / 1920х1080p / 23,976 fps / 4751 Kbps
Аудио: Русский / AC3 / 48 KHz / 5.1 ch / 640 Kbps (Дубляж - BD 3D Rus)
Субтитры: Отсутствуют

MediaInfo


General
Unique ID : 252397067913315269809144170229507345393 (0xBDE1E83781F4405E8301B0E3811CCBF1)
Complete name : E:\OnDrakon(2015)3D-halfOU(Ash61).mkv
Format : Matroska
Format version : Version 2
File size : 4.13 GiB
Duration : 1h 47mn
Overall bit rate : 5 500 Kbps
Movie name : Он – дракон (2015) в 3Д
Encoded date : UTC 2016-08-15 15:35:24
Writing application : mkvmerge v5.8.0 ('No Sleep / Pillow') built on Sep 2 2012 15:37:04
Writing library : libebml v1.2.3 + libmatroska v1.3.0
Video
ID : 1
Format : AVC
Format/Info : Advanced Video Codec
Format profile : High@L4.1
Format settings, CABAC : Yes
Format settings, ReFrames : 4 frames
Codec ID : V_MPEG4/ISO/AVC
Duration : 1h 47mn
Bit rate : 4 751 Kbps
Width : 1 920 pixels
Height : 1 080 pixels
Display aspect ratio : 16:9
Frame rate mode : Constant
Frame rate : 23.976 fps
Color space : YUV
Chroma subsampling : 4:2:0
Bit depth : 8 bits
Scan type : Progressive
Bits/(Pixel*Frame) : 0.096
Stream size : 3.57 GiB (86%)
Title : BDRip by Ash61
Writing library : x264 core 146 r2538 121396c
Encoding settings : cabac=1 / ref=4 / deblock=1:-3:-3 / analyse=0x3:0x113 / me=umh / subme=10 / psy=1 / psy_rd=1.00:0.00 / mixed_ref=1 / me_range=32 / chroma_me=1 / trellis=2 / 8x8dct=1 / cqm=0 / deadzone=21,11 / fast_pskip=1 / chroma_qp_offset=-2 / threads=12 / lookahead_threads=3 / sliced_threads=0 / nr=0 / decimate=1 / interlaced=0 / bluray_compat=0 / constrained_intra=0 / bframes=12 / b_pyramid=2 / b_adapt=2 / b_bias=0 / direct=3 / weightb=1 / open_gop=0 / weightp=2 / keyint=250 / keyint_min=23 / scenecut=40 / intra_refresh=0 / rc_lookahead=60 / rc=crf / mbtree=1 / crf=16.0 / qcomp=0.70 / qpmin=0 / qpmax=69 / qpstep=4 / vbv_maxrate=40000 / vbv_bufsize=30000 / crf_max=0.0 / nal_hrd=none / filler=0 / frame-packing=4 / ip_ratio=1.40 / aq=1:0.70
Language : Russian
Default : Yes
Forced : No
Audio
ID : 2
Format : AC-3
Format/Info : Audio Coding 3
Mode extension : CM (complete main)
Format settings, Endianness : Big
Codec ID : A_AC3
Duration : 1h 47mn
Bit rate mode : Constant
Bit rate : 640 Kbps
Channel(s) : 6 channels
Channel positions : Front: L C R, Side: L R, LFE
Sampling rate : 48.0 KHz
Bit depth : 16 bits
Compression mode : Lossy
Stream size : 492 MiB (12%)
Title : Оригинал - BD 3D
Language : Russian
Default : Yes
Forced : No
Menu
00:00:00.000 : :1
00:08:54.784 : :2
00:17:23.000 : :3
00:26:30.798 : :4
00:34:56.136 : :5
00:45:05.494 : :6
00:54:25.262 : :7
01:02:54.729 : :8
01:13:01.502 : :9
01:21:56.870 : :10
01:31:10.632 : :11
01:41:10.856 : :12

Для оценки 3Д - Анимированные скрины





















_________________
Показать сообщения:    

Текущее время: Сегодня 09:46

Часовой пояс: GMT



Вы не можете начинать темы
Вы не можете отвечать на сообщения
Вы не можете редактировать свои сообщения
Вы не можете удалять свои сообщения
Вы не можете голосовать в опросах
Вы не можете прикреплять файлы к сообщениям
Вы не можете скачивать файлы
Наши партнеры: интернет магазин Ивановского трикотажа textilla.ru