Важное объявление!
У Нас Все раздачи мультитрекерные, при нуле пиров в релизах, можете смело вставать на закачку!
 
Автор Сообщение

HUNTER

Стаж:
4 года 4 месяца
Сообщений:
56733

Репутация: 101

[+] [-]
Вне форума [Профиль] [ЛС]

Оливер Твист / Oliver Twist-
Страна: США
Жанр: мультфильм, семейный
Продолжительность: 01:30:19
Год выпуска: 1974
Перевод 1: Профессиональный (многоголосый закадровый) по заказу телеканала "Россия"
Перевод 2: Одноголосый (закадровый) Неизвестный с VHS
Русские субтитры: нет-Режиссёр: Хэл Сазерленд / Hal Sutherland
Роли озвучивали: Джош Альби, Филип Л. Кларк, Кэтлин Корделл, Майкл Эванс, Лола Фишер, Боб Холт, Дави Джонс, Ларри Д. Манн, Билли Симпсон, Ларри Сторч- | Релиз: -Описание: 19-й век. Мальчик по имени Оливер Твист, после смерти матери, оказывается на улицах Лондона. Здесь он знакомится с вором по имени Фэджин, который приглашает Оливера в свою команду. Некоторое время спустя Оливер, начинающий вор, попадается на горячем. Однако, поймавший его мистер Браунлоу вместо того, чтобы наказать маленького сорванца, решает его воспитать…-Семпл: скачать-Качество: DVDRip-AVC
Формат: MKV
Видео: 720x480 (4:3) @ 640x480, 23.976 fps, AVC, ~2976 kbps, 0.351 bits/pixel
Аудио 1: Russian, 48.0 KHz, AC3, 2 ch, 192 kbps - Многоголосый закадровый | "Россия"
Аудио 2: Russian, 48.0 KHz, AC3, 1 ch, 192 kbps - Одноголосый закадровый | VHS
Аудио 3: English, 48.0 KHz, AC3, 1 ch, 192 kbps
Субтитры: English

MediaInfo

x264.log

x264 [info]: 720x480p 8:9 @ 24000/1001 fps (cfr)x264 [info]: using SAR=8/9x264 [info]: using cpu capabilities: MMX2 SSE2Fast SSSE3 SSE4.2 AVXx264 [info]: profile High, level 4.0x264 [info]: cabac=1 ref=16 deblock=1:-2:-1 analyse=0x3:0x133 me=umh subme=11 psy=1 fade_compensate=0.00 psy_rd=1.00:0.00 mixed_ref=1 me_range=48 chroma_me=1 trellis=2 8x8dct=1 cqm=0 deadzone=21,11 fast_pskip=0 chroma_qp_offset=-2 threads=12 lookahead_threads=3 sliced_threads=0 nr=0 decimate=1 interlaced=0 bluray_compat=0 constrained_intra=0 fgo=0 bframes=16 b_pyramid=2 b_adapt=2 b_bias=0 direct=3 weightb=1 open_gop=0 weightp=2 keyint=250 keyint_min=23 scenecut=40 intra_refresh=0 rc=crf mbtree=0 crf=18.0000 qcomp=0.60 qpmin=0 qpmax=69 qpstep=4 ip_ratio=1.40 pb_ratio=1.30 aq=3:0.90x264 [info]: frame I:1288 Avg QP:18.55 size: 50623x264 [info]: frame P:27846 Avg QP:19.80 size: 27501x264 [info]: frame B:100814 Avg QP:21.28 size: 11762x264 [info]: consecutive B-frames: 2.4% 1.9% 13.7% 8.4% 9.4% 59.8% 2.3% 0.4% 0.4% 0.2% 0.2% 0.4% 0.1% 0.1% 0.1% 0.1% 0.1%x264 [info]: mb I I16..4: 0.6% 92.6% 6.8%x264 [info]: mb P I16..4: 0.1% 25.6% 0.4% P16..4: 25.8% 27.7% 18.6% 1.1% 0.1% skip: 0.7%x264 [info]: mb B I16..4: 0.0% 6.0% 0.1% B16..8: 35.7% 22.2% 5.0% direct:11.2% skip:19.9% L0:40.9% L1:28.4% BI:30.7%x264 [info]: 8x8 transform intra:97.8% inter:79.3%x264 [info]: direct mvs spatial:99.7% temporal:0.3%x264 [info]: coded y,uvDC,uvAC intra: 97.6% 84.0% 47.4% inter: 52.7% 38.0% 5.3%x264 [info]: i16 v,h,dc,p: 35% 14% 20% 31%x264 [info]: i8 v,h,dc,ddl,ddr,vr,hd,vl,hu: 9% 9% 37% 7% 6% 6% 7% 8% 11%x264 [info]: i4 v,h,dc,ddl,ddr,vr,hd,vl,hu: 10% 8% 7% 11% 15% 13% 14% 11% 12%x264 [info]: i8c dc,h,v,p: 31% 35% 25% 9%x264 [info]: Weighted P-Frames: Y:30.2% UV:17.9%x264 [info]: ref P L0: 37.1% 12.0% 14.9% 7.3% 6.0% 4.0% 3.8% 2.7% 2.4% 1.7% 1.7% 1.5% 1.5% 1.2% 1.2% 1.0%x264 [info]: ref B L0: 66.3% 13.2% 5.3% 3.3% 2.2% 2.0% 1.6% 1.4% 1.0% 0.9% 0.8% 0.8% 0.7% 0.4% 0.2%x264 [info]: ref B L1: 91.0% 9.0%x264 [info]: kb/s:2976.79x264 [info]: encoded 129948 frames, 13.91 fps, 2976.79 kb/s, duration 2:35:43.83
GeneralUnique ID : 254041788412703533610800374005926099619 (0xBF1EAB32BD46C1CF85D48311D5167AA3)Complete name : E:\VIDEO_Mult\Oliver.Twist.1974.DVDRip.rutracker-xfiles.mkvFormat : MatroskaFormat version : Version 4 / Version 2File size : 2.24 GiBDuration : 1h 30mnOverall bit rate : 3 555 KbpsMovie name : Oliver.Twist.1974.DVDRip.rutracker-xfilesEncoded date : UTC 2014-04-20 17:10:41Writing application : mkvmerge v6.9.1 ('Blue Panther') 64bit built on Apr 18 2014 18:23:38Writing library : libebml v1.3.0 + libmatroska v1.4.1
VideoID : 1Format : AVCFormat/Info : Advanced Video CodecFormat profile : High@L4.0Format settings, CABAC : YesFormat settings, ReFrames : 16 framesCodec ID : V_MPEG4/ISO/AVCDuration : 1h 30mnBit rate : 2 908 KbpsWidth : 720 pixelsHeight : 480 pixelsDisplay aspect ratio : 4:3Frame rate mode : ConstantFrame rate : 23.976 fpsStandard : NTSCColor space : YUVChroma subsampling : 4:2:0Bit depth : 8 bitsScan type : ProgressiveBits/(Pixel*Frame) : 0.351Stream size : 1.84 GiB (82%)Title : http://rutracker.org/forum/viewtopic.php?t=4720745Writing library : x264 core 142 r2409kMod d6b4e63Encoding settings : cabac=1 / ref=16 / deblock=1:-2:-1 / analyse=0x3:0x133 / me=umh / subme=11 / psy=1 / fade_compensate=0.00 /psy_rd=1.00:0.00 / mixed_ref=1 / me_range=48 / chroma_me=1 / trellis=2 / 8x8dct=1 / cqm=0 / deadzone=21,11 / fast_pskip=0 / chroma_qp_offset=-2 /threads=12 / lookahead_threads=3 / sliced_threads=0 / nr=0 / decimate=1 / interlaced=0 / bluray_compat=0 / constrained_intra=0 / fgo=0 / bframes=16 /b_pyramid=2 / b_adapt=2 / b_bias=0 / direct=3 / weightb=1 / open_gop=0 / weightp=2 / keyint=250 / keyint_min=23 / scenecut=40 / intra_refresh=0 /rc=crf / mbtree=0 / crf=18.0000 / qcomp=0.60 / qpmin=0 / qpmax=69 / qpstep=4 / ip_ratio=1.40 / pb_ratio=1.30 / aq=3:0.90Language : EnglishDefault : YesForced : NoColor primaries : BT.601Transfer characteristics : BT.470 System B, BT.470 System GMatrix coefficients : BT.601
Audio #1ID : 2Format : AC-3Format/Info : Audio Coding 3Mode extension : CM (complete main)Format settings, Endianness : BigCodec ID : A_AC3Duration : 1h 30mnBit rate mode : ConstantBit rate : 192 KbpsChannel(s) : 2 channelsChannel positions : Front: L RSampling rate : 48.0 KHzBit depth : 16 bitsCompression mode : LossyStream size : 124 MiB (5%)Title : Многоголосый закадровый | "Россия"Language : RussianDefault : YesForced : No
Audio #2ID : 3Format : AC-3Format/Info : Audio Coding 3Mode extension : CM (complete main)Format settings, Endianness : BigCodec ID : A_AC3Duration : 1h 30mnBit rate mode : ConstantBit rate : 192 KbpsChannel(s) : 1 channelChannel positions : Front: CSampling rate : 48.0 KHzBit depth : 16 bitsCompression mode : LossyStream size : 124 MiB (5%)Title : Одноголосый закадровый | VHSLanguage : RussianDefault : NoForced : No
Audio #3ID : 4Format : AC-3Format/Info : Audio Coding 3Mode extension : CM (complete main)Format settings, Endianness : BigCodec ID : A_AC3Duration : 1h 30mnBit rate mode : ConstantBit rate : 192 KbpsChannel(s) : 1 channelChannel positions : Front: CSampling rate : 48.0 KHzBit depth : 16 bitsCompression mode : LossyStream size : 124 MiB (5%)Language : EnglishDefault : NoForced : No
TextID : 5Format : UTF-8Codec ID : S_TEXT/UTF8Codec ID/Info : UTF-8 Plain TextLanguage : EnglishDefault : NoForced : No
Menu00:00:00.000 : en:01. Once upon a Time00:05:39.372 : en:02. Wrong Song00:14:00.239 : en:03. They're Only Shadows00:26:02.795 : en:04. Man About Town00:39:29.067 : en:05. It's Just a Game00:48:47.124 : en:06. Guilty00:55:24.188 : en:07. Where Is Oliver?01:13:27.937 : en:08. If You Should Leave My Life01:27:21.970 : en:09. It's a Wonderful World After All01:29:16.384 : en:10. End Credits

_________________
Показать сообщения:    

Текущее время: Сегодня 20:42

Часовой пояс: GMT



Вы не можете начинать темы
Вы не можете отвечать на сообщения
Вы не можете редактировать свои сообщения
Вы не можете удалять свои сообщения
Вы не можете голосовать в опросах
Вы не можете прикреплять файлы к сообщениям
Вы не можете скачивать файлы