Важное объявление!
У Нас Все раздачи мультитрекерные, при нуле пиров в релизах, можете смело вставать на закачку!
 
Автор Сообщение

HUNTER

Стаж:
4 года 4 месяца
Сообщений:
56829

Репутация: 101

[+] [-]
Вне форума [Профиль] [ЛС]

Оливер Твист / Oliver Twist
Страна: США
Жанр: мультфильм, семейный
Продолжительность: 1:30:14
Год выпуска: 1974
Перевод 1: Профессиональный (многоголосый закадровый)
Перевод 2: Одноголосый (закадровый) Неизвестный с VHS
Русские субтитры: нет
Режиссёр: Хэл Сазерленд / Hal Sutherland
Роли озвучивали: Джош Альби, Филип Л. Кларк, Кэтлин Корделл, Майкл Эванс, Лола Фишер, Боб Холт, Дави Джонс, Ларри Д. Манн, Билли Симпсон, Ларри Сторч-Описание: 19-й век. Мальчик по имени Оливер Твист, после смерти матери, оказывается на улицах Лондона. Здесь он знакомится с вором по имени Фэджин, который приглашает Оливера в свою команду. Некоторое время спустя Оливер, начинающий вор, попадается на горячем. Однако, поймавший его мистер Браунлоу вместо того, чтобы наказать маленького сорванца, решает его воспитать…-Доп. материалы: Две игры, музыкальные фрагменты, трейлеры к фильмам
Качество: DVD5 (Custom)
Формат: DVD-video
Видео: NTSC, 4:3, 720x480, 29,970 fps, ~5000 kb/s
Аудио 1: AC3, 2ch, 192 Кбит/сек (Rus) MVO
Аудио 2: AC3, 1ch, 192 Кбит/сек (Rus) VO
Аудио 2: AC3, 1ch, 192 Кбит/сек (Eng)
Субтитры: Английские, французские. испанские, португальские
Релиз: Благодарность: xfiles за синхронизацию аудиодорожки с одноголосым переводом

DVDInfo

Title: Oliver Twist (1974) DVD5Size: 4.05 Gb ( 4 250 924,00 KBytes ) - DVD-5Enabled regions: 1, 2, 3, 4, 5, 6, 7, 8
VTS_01 : Play Length: 01:30:14+00:00:12+00:00:00+{00:00:00}+{00:00:00}+{00:00:00}+{00:00:00}+00:00:09+00:00:16+00:00:05+00:00:16+00:00:04+{00:00:04}+{00:00:04}+{00:00:04}+{00:01:58}+{00:01:18}+{00:01:27}+{00:01:25}+{00:01:32}+{00:01:14}+{00:00:49}+{00:01:42}+{00:02:03}+00:13:28 Video: NTSC 4:3 (720x480) VBR Audio: Russian (Dolby AC3, 2 ch) Russian (Dolby AC3, 1 ch) English (Dolby AC3, 1 ch) Subtitles: English Francais Espanol Portugues
VTS_02 : Play Length: 00:00:06+00:00:06+00:00:06+00:00:05+00:00:05+00:00:05+{00:00:05}+{00:00:05}+{00:00:05}+{00:00:05}+00:01:41+00:01:41+00:01:30+00:01:44+00:01:57 Video: NTSC 4:3 (720x480) VBR Audio: English (Dolby AC3, 6 ch) Francais (Dolby AC3, 6 ch) Espanol (Dolby AC3, 6 ch) Portugues (Dolby AC3, 6 ch) English (Dolby AC3, 2 ch) Subtitles: English Francais Espanol Portugues
VTS_03 : Play Length: 00:00:34+00:00:35 Video: NTSC 4:3 (720x480) VBR Audio: English (Dolby AC3, 6 ch) Francais (Dolby AC3, 6 ch) Subtitles: English Francais Espanol Portugues
* Menus Information *
VIDEO_TS MenuVideo: NTSC 4:3 (720x480) VBR Auto Pan&Scan, Auto LetterboxedLanguage Unit : Title Menu
VTS_01 MenuVideo: NTSC 16:9 (720x480) VBR Auto Pan&ScanAudio: Not specified (Dolby AC3, 2 ch)English Language Unit : Root MenuLanguage Unit :
Language Unit :
VTS_02 MenuVideo: NTSC 4:3 (720x480) VBR Auto Pan&Scan, Auto LetterboxedLanguage Unit : Root Menu
VTS_03 MenuVideo: NTSC 4:3 (720x480) VBR Auto Pan&Scan, Auto LetterboxedLanguage Unit : Root Menu

MediaInfo

ОбщееПолное имя : E:\MULTFILMS\Oliver Twist (1974) DVD5\VIDEO_TS\VTS_01_1.VOBФормат : MPEG-PSРазмер файла : 1024 МбайтПродолжительность : 25 м.Режим общего битрейта : ПеременныйОбщий поток : 5616 Кбит/сек
ВидеоИдентификатор : 224 (0xE0)Формат : MPEG VideoВерсия формата : Version 2Профиль формата : Main@MainПараметр BVOP формата : ДаПараметр матрицы формата : ВыборочнаяПараметр GOP формата : M=3, N=12Продолжительность : 25 м.Вид битрейта : ПеременныйБитрейт : 4928 Кбит/секШирина : 720 пикселейВысота : 480 пикселейСоотношение сторон : 4:3Частота кадров : 29,970 кадров/секСтандарт вещания : NTSCЦветовое пространство : YUVСубдискретизация насыщенности : 4:2:0Битовая глубина : 8 битМетод сжатия : С потерямиБит/(Пиксели*Кадры) : 0.476Временной код первого кадра : 00:00:00:00Оригинал временного кода : Group of pictures headerРазмер потока : 899 Мбайт (88%)
Аудио #1Идентификатор : 189 (0xBD)-128 (0x80)Формат : AC-3Формат/Информация : Audio Coding 3Расширение режима : CM (complete main)Параметр Endianness формата : BigРежим смешивания : DVD-VideoПродолжительность : 25 м.Вид битрейта : ПостоянныйБитрейт : 192 Кбит/секКаналы : 1 каналРасположение каналов : Front: CЧастота : 48,0 КГцБитовая глубина : 16 битМетод сжатия : С потерямиЗадержка видео : -285 мс.Размер потока : 35,0 Мбайт (3%)
Аудио #2Идентификатор : 189 (0xBD)-129 (0x81)Формат : AC-3Формат/Информация : Audio Coding 3Расширение режима : CM (complete main)Параметр Endianness формата : BigРежим смешивания : DVD-VideoПродолжительность : 25 м.Вид битрейта : ПостоянныйБитрейт : 192 Кбит/секКаналы : 1 каналРасположение каналов : Front: CЧастота : 48,0 КГцБитовая глубина : 16 битМетод сжатия : С потерямиЗадержка видео : -49 мс.Размер потока : 35,0 Мбайт (3%)
Аудио #3Идентификатор : 189 (0xBD)-130 (0x82)Формат : AC-3Формат/Информация : Audio Coding 3Расширение режима : CM (complete main)Параметр Endianness формата : BigРежим смешивания : DVD-VideoПродолжительность : 25 м.Вид битрейта : ПостоянныйБитрейт : 192 Кбит/секКаналы : 1 каналРасположение каналов : Front: CЧастота : 48,0 КГцБитовая глубина : 16 битМетод сжатия : С потерямиЗадержка видео : -49 мс.Размер потока : 35,0 Мбайт (3%)
Текст #1Идентификатор : 189 (0xBD)-34 (0x22)Формат : RLEФормат/Информация : Run-length encodingРежим смешивания : DVD-VideoПродолжительность : 25 м.Задержка видео : 10 с.
Текст #2Идентификатор : 224 (0xE0)-CC3Формат : EIA-608Режим смешивания, доп. информация : Muxed in Video #1Вид битрейта : ПостоянныйРазмер потока : 0,00 байт (0%)
Текст #3Идентификатор : 189 (0xBD)-32 (0x20)Формат : RLEФормат/Информация : Run-length encodingРежим смешивания : DVD-Video
Текст #4Идентификатор : 189 (0xBD)-33 (0x21)Формат : RLEФормат/Информация : Run-length encodingРежим смешивания : DVD-Video
Текст #5Идентификатор : 189 (0xBD)-35 (0x23)Формат : RLEФормат/Информация : Run-length encodingРежим смешивания : DVD-Video
Меню

Скриншоты меню

Скриншоты


Используемый софт

Faad (Распаковка звука в формат wav)
Adobe Audition (Синхронизация аудио)
Minnetonka Audio (Конвертация звука в формат Dolby AC3)
PgcDemux (Разборка диска)
MuxMan (Сборка диска)
DVDSubEdit Редактирование подсветки кнопок меню
DVDRemakePro (Редактирование навигации, реавторинг DVD)

_________________
Показать сообщения:    

Текущее время: Сегодня 17:04

Часовой пояс: GMT



Вы не можете начинать темы
Вы не можете отвечать на сообщения
Вы не можете редактировать свои сообщения
Вы не можете удалять свои сообщения
Вы не можете голосовать в опросах
Вы не можете прикреплять файлы к сообщениям
Вы не можете скачивать файлы