Важное объявление!
У Нас Все раздачи мультитрекерные, при нуле пиров в релизах, можете смело вставать на закачку!
 
Автор Сообщение

HUNTER

Стаж:
4 года 4 месяца
Сообщений:
56765

Репутация: 101

[+] [-]
Вне форума [Профиль] [ЛС]

Оливер и компания
Oliver & Company
-«The first Disney movie with attitude.»-
Год выпуска: 1988
Страна: США, Walt Disney Feature Animation, Silver Screen Partners III, Walt Disney Pictures
Жанры: мюзикл, приключения, семейный
Продолжительность: 01:13:32-Перевод:
  • Профессиональный (полное дублирование) Студия "Пифагор"
  • Авторский одноголосый Ю.Живов
-Cубтитры: Русские (форсированные и полные), Английские
Навигация по главам: есть-Режиссер: Джордж Скрибнер / George Scribner
Роли озвучивали: Джозеф Лоуренс, Билли Джоэл, Чич Марин, Ричард Маллиган, Роско Ли Браун, Шерил Ли Ральф, Дом ДеЛуис, Торин Блак, Карл Вентрауб, Роберт Лоджа...
Роли дублировали: Томас Шлеккер, Андрей Бархударов, Юрий Мазихин, Дмитрий Полонский, Владимир Антоник, Игорь Ясулович, Борис Клюев, Владимир Антоник, Сергей Чонишвили, Андрей Градов, Александр Клюквин, Анна Каменкова, Лика Рулла...-Описание: Рисованный, цветной, полнометражный мультфильм про котенка Оливера, которого никто не купил. Он остался один на страшных улицах Нью-Йорка и выжил, только благодаря друзьям. Героями этой почти детективной истории будут кошки, собаки и люди, ибо бомж Спайк, в «дыре» которого нашли приют котенок и несколько бездомных собак, задолжал деньги крупному мафиози.
Лучшим другом и защитником малыша стал фокстерьер Доджер, большой специалист по краже сосисок. Вместе они должны помочь своему хозяину, иначе им грозит стать «закуской для подлых доберманов» у которых еcть ошейники, но нет совести.-
Релиз от -Качество: BDRip (HiDt)
Формат: MKV
Видео кодек: x264
Аудио кодек: AC3, DTS
Видео: MPEG4 Video (H264), ~7 125 Kbps, 1280x692, 23.976 fps
Аудио #1: Russian - AС3, 640 Kbps, 48KHz, 6ch [Профессиональный Дубляж Пифагор]
Аудио #2: Russian - DTS, 1509 Kbps, 48KHz, 6ch [Одноголосый закадровый, Ю.Живов]
Аудио #3: English - DTS, 1509 Kbps, 48KHz, 6ch

Подробные тех. данные

General
Unique ID : 212595168355076926805541070188891616515 (0x9FF0570F446693C7BAEC775A7FA43503)
Complete name : D:\Мультфильмы\Полнометражные\Oliver.&.Company.1988.720p.BluRay.x264.Rus.Eng-HiDt.mkv
Format : Matroska
Format version : Version 2
File size : 5.69 GiB
Duration : 1h 13mn
Overall bit rate : 11.0 Mbps
Movie name : BLUEBIRD
Encoded date : UTC 2013-08-07 13:23:12
Writing application : mkvmerge v5.7.0 ('The Whirlwind') built on Jul 29 2012 15:12:35
Writing library : libebml v1.2.3 + libmatroska v1.3.0
Video
ID : 1
Format : AVC
Format/Info : Advanced Video Codec
Format profile : High@L4.1
Format settings, CABAC : Yes
Format settings, ReFrames : 9 frames
Codec ID : V_MPEG4/ISO/AVC
Duration : 1h 13mn
Bit rate : 7 167 Kbps
Width : 1 280 pixels
Height : 692 pixels
Display aspect ratio : 1.85:1
Frame rate mode : Constant
Frame rate : 23.976 fps
Color space : YUV
Chroma subsampling : 4:2:0
Bit depth : 8 bits
Scan type : Progressive
Bits/(Pixel*Frame) : 0.337
Stream size : 3.69 GiB (65%)
Title : HiDt
Writing library : x264 core 130 r2273 b3065e6
Encoding settings : cabac=1 / ref=9 / deblock=1:-3:-3 / analyse=0x3:0x113 / me=tesa / subme=11 / psy=1 / psy_rd=0.85:0.00 / mixed_ref=1 / me_range=32 / chroma_me=1 / trellis=2 / 8x8dct=1 / cqm=0 / deadzone=21,11 / fast_pskip=0 / chroma_qp_offset=-2 / threads=12 / lookahead_threads=2 / sliced_threads=0 / nr=0 / decimate=1 / interlaced=0 / bluray_compat=0 / constrained_intra=0 / bframes=8 / b_pyramid=2 / b_adapt=2 / b_bias=0 / direct=3 / weightb=1 / open_gop=0 / weightp=2 / keyint=250 / keyint_min=25 / scenecut=40 / intra_refresh=0 / rc=crf / mbtree=0 / crf=16.7 / qcomp=0.80 / qpmin=0 / qpmax=69 / qpstep=4 / ip_ratio=1.40 / pb_ratio=1.30 / aq=1:0.90
Language : English
Default : Yes
Forced : No
Matrix coefficients : BT.709
Audio #1
ID : 2
Format : AC-3
Format/Info : Audio Coding 3
Mode extension : CM (complete main)
Format settings, Endianness : Big
Codec ID : A_AC3
Duration : 1h 13mn
Bit rate mode : Constant
Bit rate : 640 Kbps
Channel(s) : 6 channels
Channel positions : Front: L C R, Side: L R, LFE
Sampling rate : 48.0 KHz
Bit depth : 16 bits
Compression mode : Lossy
Stream size : 337 MiB (6%)
Title : DUB BD EUR
Language : Russian
Default : Yes
Forced : No
Audio #2
ID : 3
Format : DTS
Format/Info : Digital Theater Systems
Mode : 16
Format settings, Endianness : Big
Codec ID : A_DTS
Duration : 1h 13mn
Bit rate mode : Constant
Bit rate : 1 509 Kbps
Channel(s) : 6 channels
Channel positions : Front: L C R, Side: L R, LFE
Sampling rate : 48.0 KHz
Bit depth : 24 bits
Compression mode : Lossy
Stream size : 796 MiB (14%)
Title : AVO Ю.Живов
Language : Russian
Default : No
Forced : No
Audio #3
ID : 4
Format : DTS
Format/Info : Digital Theater Systems
Mode : 16
Format settings, Endianness : Big
Codec ID : A_DTS
Duration : 1h 13mn
Bit rate mode : Constant
Bit rate : 1 509 Kbps
Channel(s) : 6 channels
Channel positions : Front: L C R, Side: L R, LFE
Sampling rate : 48.0 KHz
Bit depth : 24 bits
Compression mode : Lossy
Stream size : 796 MiB (14%)
Language : English
Default : No
Forced : No
Text #1
ID : 5
Format : UTF-8
Codec ID : S_TEXT/UTF8
Codec ID/Info : UTF-8 Plain Text
Title : Forced
Language : Russian
Default : Yes
Forced : No
Text #2
ID : 6
Format : UTF-8
Codec ID : S_TEXT/UTF8
Codec ID/Info : UTF-8 Plain Text
Title : Full
Language : Russian
Default : No
Forced : No
Text #3
ID : 7
Format : UTF-8
Codec ID : S_TEXT/UTF8
Codec ID/Info : UTF-8 Plain Text
Language : English
Default : No
Forced : No
Text #4
ID : 8
Format : UTF-8
Codec ID : S_TEXT/UTF8
Codec ID/Info : UTF-8 Plain Text
Language : English
Default : No
Forced : No
Menu
00:00:00.000 : en:00:00:00.000
00:04:11.543 : en:00:04:11.543
00:06:59.502 : en:00:06:59.502
00:09:21.186 : en:00:09:21.186
00:12:51.437 : en:00:12:51.437
00:15:10.076 : en:00:15:10.076
00:18:48.169 : en:00:18:48.169
00:24:36.016 : en:00:24:36.016
00:27:50.335 : en:00:27:50.335
00:30:30.037 : en:00:30:30.037
00:32:31.074 : en:00:32:31.074
00:33:03.106 : en:00:33:03.106
00:36:01.618 : en:00:36:01.618
00:37:58.902 : en:00:37:58.902
00:38:54.332 : en:00:38:54.332
00:41:50.425 : en:00:41:50.425
00:47:55.873 : en:00:47:55.873
00:53:25.327 : en:00:53:25.327
00:56:34.933 : en:00:56:34.933
00:57:20.270 : en:00:57:20.270
01:01:34.357 : en:01:01:34.357
01:05:07.821 : en:01:05:07.821
01:06:27.066 : en:01:06:27.066
01:09:24.035 : en:01:09:24.035

Скриншоты


_________________
Показать сообщения:    

Текущее время: Сегодня 02:21

Часовой пояс: GMT



Вы не можете начинать темы
Вы не можете отвечать на сообщения
Вы не можете редактировать свои сообщения
Вы не можете удалять свои сообщения
Вы не можете голосовать в опросах
Вы не можете прикреплять файлы к сообщениям
Вы не можете скачивать файлы