Важное объявление!
У Нас Все раздачи мультитрекерные, при нуле пиров в релизах, можете смело вставать на закачку!
 
Автор Сообщение

HUNTER

Стаж:
4 года 4 месяца
Сообщений:
56808

Репутация: 101

[+] [-]
Вне форума [Профиль] [ЛС]

Оливер и компания / Oliver & Company
Страна: США
Жанр: мультфильм, мюзикл, приключения, семейный
Продолжительность: 01:10:12
Год выпуска: 1988
Перевод: Авторский (одноголосый закадровый) - Максим Ошурков
Русские субтитры: нет
Режиссёр: Джордж Скрибнер / George Scribner
Роли озвучивали: Джозеф Лоуренс, Билли Джоэл, Чич Марин, Ричард Маллиган, Роско Ли Браун, Шерил Ли Ральф, Дом ДеЛуис, Торин Блак, Карл Вентрау, Роберт Лоджа
Описание:
Это картина, за основу сюжета которой был взят роман Чарльза Диккенса, рассказывает историю о рыжем котёнке Оливере, который пытается выжить на улицах Нью-Йорка. Познакомившись с псом Доджером, он попадает в группу собак во главе с бездомным Фейгином. Но когда Оливер встречает девочку Дженни из богатой семьи, его жизнь меняется навсегда.
Доп. информация: За разрешение использовать видео - спасибо Pustovetov.
За синхронизацию - спасибо randos2009.
Исходник аудио и оцифровка - Aflame 300.
Семпл: https://yadi.sk/i/YI9u7W3sW8CK5
Качество: DVDRip
Формат: MKV
Видео: 796 x 480 (672x480 16:9), 16 fps, 1816 kbps
Аудио: A_AC3, 48 kHz, 2 ch, 192 kbps
Субтитры: отсутствуют
Подробные технические данные
ОбщееУникальный идентификатор : 188643807328964676973849723515006584225 (0x8DEB79C9D264553DA11A8E8546D785A1)Полное имя : F:\Data Base\The Films\Cartoons\Oliver & Company\Oliver & Company.mkvФормат : MatroskaВерсия формата : Version 2Размер файла : 1009 МбайтПродолжительность : 1 ч. 10 м.Общий поток : 2000 Кбит/секДата кодирования : UTC 2014-07-07 13:52:45Программа кодирования : mkvmerge v5.0.0 ('Die Wahre Liebe') built on Sep 25 2011 20:33:49Библиотека кодирования : libebml v1.2.2 + libmatroska v1.3.0Обложка : Yes
ВидеоИдентификатор : 1Формат : AVCФормат/Информация : Advanced Video CodecПрофиль формата : High@L3.2Параметр CABAC формата : ДаПараметр ReFrames формата : 16 кадровРежим смешивания : Header strippingИдентификатор кодека : V_MPEG4/ISO/AVCПродолжительность : 1 ч. 10 м.Битрейт : 1816 Кбит/секШирина : 672 пикселяВысота : 480 пикселейСоотношение сторон : 1,658Соотношение сторон в оригинале : 1,400Режим частоты кадров : ПостоянныйЧастота кадров : 25,000 кадров/секЦветовое пространство : YUVСубдискретизация насыщенности : 4:2:0Битовая глубина : 8 битТип развёртки : ПрогрессивнаяБит/(Пиксели*Кадры) : 0.225Размер потока : 892 Мбайт (88%)Библиотека кодирования : x264 core 61 r942M fd5cc6dНастройки программы : cabac=1 / ref=16 / deblock=1:-2:-2 / analyse=0x3:0x133 / me=umh / subme=7 / psy_rd=1.0:1.0 / brdo=1 / mixed_ref=1 / me_range=32 / chroma_me=1 / trellis=2 / 8x8dct=1 / cqm=0 / deadzone=21,11 / chroma_qp_offset=-8 / threads=3 / nr=0 / decimate=0 / mbaff=0 / bframes=8 / b_pyramid=1 / b_adapt=2 / b_bias=0 / direct=3 / wpredb=1 / bime=1 / keyint=250 / keyint_min=25 / scenecut=40(pre) / rc=2pass / bitrate=1816 / ratetol=1.0 / rceq='blurCplx^(1-qComp)' / qcomp=1.00 / qpmin=10 / qpmax=51 / qpstep=4 / cplxblur=20.0 / qblur=0.5 / ip_ratio=1.40 / pb_ratio=1.30 / aq=2:1.00 / zones=99883,105300,q=40Язык : РусскийDefault : ДаForced : Нет
АудиоИдентификатор : 2Формат : AC-3Формат/Информация : Audio Coding 3Расширение режима : CM (complete main)Параметр Endianness формата : BigРежим смешивания : Header strippingИдентификатор кодека : A_AC3Продолжительность : 1 ч. 10 м.Вид битрейта : ПостоянныйБитрейт : 192 Кбит/секКаналы : 2 каналаРасположение каналов : Front: L RЧастота : 48,0 КГцБитовая глубина : 16 битМетод сжатия : С потерямиРазмер потока : 96,9 Мбайт (10%)Default : ДаForced : Нет
Меню00:00:17.000 : ru:Нью-йоркским утром00:04:00.000 : ru:В городской суете00:06:41.030 : ru:Наставник00:08:57.050 : ru:Догнал - отними!00:12:19.000 : ru:Логово00:14:32.110 : ru:Знакомство00:18:00.220 : ru:Проблемы Фэйгана00:23:34.210 : ru:Ночлег00:26:40.210 : ru:Мотай на ус00:29:14.030 : ru:Столкновение00:31:10.060 : ru:Новый дом00:31:40.240 : ru:Соло Жоржетты00:34:32.020 : ru:Строгая хозяйка00:36:24.160 : ru:План по спасению00:37:17.220 : ru:Друзья00:40:06.110 : ru:Спасение века00:45:56.200 : ru:Последний шанс00:51:12.220 : ru:Трудный выбор00:54:13.140 : ru:Новая жертва00:54:58.050 : ru:Отважные спасатели00:59:02.100 : ru:Побег01:02:27.110 : ru:День Рождения01:03:42.150 : ru:Улицы зовут!
Скриншоты

_________________
Показать сообщения:    

Текущее время: Сегодня 11:18

Часовой пояс: GMT



Вы не можете начинать темы
Вы не можете отвечать на сообщения
Вы не можете редактировать свои сообщения
Вы не можете удалять свои сообщения
Вы не можете голосовать в опросах
Вы не можете прикреплять файлы к сообщениям
Вы не можете скачивать файлы