Важное объявление!
У Нас Все раздачи мультитрекерные, при нуле пиров в релизах, можете смело вставать на закачку!
 
Автор Сообщение

HUNTER

Стаж:
4 года 4 месяца
Сообщений:
56749

Репутация: 101

[+] [-]
Вне форума [Профиль] [ЛС]

Олененок Рудольф / Rudolph the Red-Nosed Reindeer: The Movie
Страна: США, Канада
Жанр: Анимация
Продолжительность: 01:19:51
Год выпуска: 1998
Перевод: Авторский (одноголосый закадровый) Николай "Антонов"
Русские субтитры: нет
Режиссёр: Уильям Р. Ковальчук мл. / William R. Kowalchuk Jr.
Роли озвучивали: Эрик Поспишил, Кэтлин Барр, Джон Гудман, Вупи Голдберг, Дебби Рейнолдс, Боб Ньюхарт, Эрик Айдл, Ричард Симмонс, Алек Уиллоуз, Ли Токар
Описание: Рождественская сказка про олененка, который при рождении уже обладал важной особенностью — горящим красным носом. Много насмешек пришлось услышать Рудольфу от других обитателей волшебной страны прежде чем он доказал всем, что он такой же как все.
Доп. информация: Дорожка с Н. Антоновым синхронизирована и наложена ale_x2008 при помощи Adobe Audition, Sony Vegas и VirtualDubMod.
За оцифрованную с VHS дорожку благодарим - d_rocker

Релиз
Семпл: https://yadi.sk/i/-kHER63puGdPg
Качество: DVDRip
Формат: AVI
Видео: 704x528 (1.33:1), 25 fps, XviD build 73 ~2041 kbps avg, 0.22 bit/pixel
Аудио: AC3 Dolby Digital, 48000Hz, 2/0 (L,R) ch (mono), 192.00 kbps avg [AVO]
Аудио 2: AC3 Dolby Digital, 48000Hz, 2/0 (L,R) ch (stereo), 224.00 kbps avg [Eng]
Субтитры: отсутствуют

Подробные технические данные

Олененок Рудольф - Rudolph the Red-Nosed Reindeer [by ale_x2008].aviFormat : AVIFormat/Info : Audio Video InterleaveFile size : 1.38 GiBDuration : 1 h 19 minOverall bit rate : 2 473 kb/sMovie name : Олененок Рудольф - Rudolph the Red-Nosed Reindeer [by ale_x2008]Director : by ale_x2008Writing application : VirtualDubMod 1.5.10.2 (build 2540/release)Copyright : Edich2Comment : RuTracker.org
VideoID : 0Format : MPEG-4 VisualFormat profile : Advanced Simple@L5Format settings, BVOP : 2Format settings, QPel : NoFormat settings, GMC : No warppointsFormat settings, Matrix : CustomCodec ID : XVIDCodec ID/Hint : XviDDuration : 1 h 19 minBit rate : 2 042 kb/sWidth : 704 pixelsHeight : 528 pixelsDisplay aspect ratio : 4:3Frame rate : 25.000 FPSColor space : YUVChroma subsampling : 4:2:0Bit depth : 8 bitsScan type : ProgressiveCompression mode : LossyBits/(Pixel*Frame) : 0.220Stream size : 1.14 GiB (83%)Writing library : XviD 73
Audio #1ID : 1Format : AC-3Format/Info : Audio Coding 3Mode extension : CM (complete main)Format settings, Endianness : BigCodec ID : 2000Duration : 1 h 19 minBit rate mode : ConstantBit rate : 192 kb/sChannel(s) : 2 channelsChannel positions : Front: L RSampling rate : 48.0 kHzFrame rate : 31.250 FPS (1536 spf)Compression mode : LossyStream size : 110 MiB (8%)Alignment : Split accross interleavesInterleave, duration : 40 ms (1.00 video frame)Interleave, preload duratio : 500 ms
Audio #2ID : 2Format : AC-3Format/Info : Audio Coding 3Mode extension : CM (complete main)Format settings, Endianness : BigCodec ID : 2000Duration : 1 h 19 minBit rate mode : ConstantBit rate : 224 kb/sChannel(s) : 2 channelsChannel positions : Front: L RSampling rate : 48.0 kHzFrame rate : 31.250 FPS (1536 spf)Compression mode : LossyStream size : 128 MiB (9%)Alignment : Split accross interleavesInterleave, duration : 40 ms (1.00 video frame)Interleave, preload duratio : 500 ms

Скриншоты




_________________
Показать сообщения:    

Текущее время: Сегодня 04:57

Часовой пояс: GMT



Вы не можете начинать темы
Вы не можете отвечать на сообщения
Вы не можете редактировать свои сообщения
Вы не можете удалять свои сообщения
Вы не можете голосовать в опросах
Вы не можете прикреплять файлы к сообщениям
Вы не можете скачивать файлы