Важное объявление!
У Нас Все раздачи мультитрекерные, при нуле пиров в релизах, можете смело вставать на закачку!
 
Автор Сообщение

HUNTER

Стаж:
4 года 4 месяца
Сообщений:
56790

Репутация: 101

[+] [-]
Вне форума [Профиль] [ЛС]

Оклахома! / Oklahoma!
-Страна: США
Жанр: мюзикл, мелодрама, вестерн
Год выпуска: 1955
Продолжительность: 02:28:00-Перевод : Профессиональный (многоголосый закадровый)-Cубтитры: русские, английские
Оригинальная аудиодорожка: английский-Режиссер: Фред Циннеман / Fred Zinnemann-В ролях: Гордон МакРэй, Глория Грэхам, Джин Нельсон, Шарлотта Гринвуд, Ширли Джонс, Эдди Альберт, Джеймс Уитмор, Род Стайгер, Барбара Лоуренс, Джей С. Флиппен-Описание: Керли — веселый и добродушный парень, работающий на ранчо. Лори Уильямс — дочь фермера, в которую Керли влюблен. Между ними пытается встать злобный Джад…-Сэмпл: Скачать-Тип релиза: BDRip 720p
Контейнер: MKV-Видео: 1280x582 (2.2:1); 7 289 Kbps; 29.970 fps; 0.326 bpp
Аудио 1: Russian; AC3; 48.0 KHz; 2ch; 192 Kbps
Аудио 2: English; AC3; 48.0 KHz; 5,1 ch; 640 Kbps
Аудио 3: English; AC3; 48.0 KHz; 2ch; 192 Kbps Commentary

MediaInfo

Format : Matroska
Format version : Version 4 / Version 2
File size : 8.77 GiB
Duration : 2h 28mn
Overall bit rate : 8 482 Kbps
Encoded date : UTC 2015-02-23 06:59:35
Writing application : mkvmerge v7.2.0 ('On Every Street') 64bit built on Sep 13 2014 15:52:10
Writing library : libebml v1.3.0 + libmatroska v1.4.1
_STATISTICS_WRITING_APP : mkvmerge v7.2.0 ('On Every Street') 64bit built on Sep 13 2014 15:52:10
_STATISTICS_WRITING_DATE_UTC : 2015-02-23 06:59:35
_STATISTICS_TAGS : BPS DURATION NUMBER_OF_FRAMES NUMBER_OF_BYTES
DURATION : 02:27:50.080000000
NUMBER_OF_FRAMES : 277190
NUMBER_OF_BYTES : 212881920
Video
ID : 1
Format : AVC
Format/Info : Advanced Video Codec
Format profile : High@L4.1
Format settings, CABAC : Yes
Format settings, ReFrames : 11 frames
Codec ID : V_MPEG4/ISO/AVC
Duration : 2h 28mn
Bit rate : 7 289 Kbps
Width : 1 280 pixels
Height : 582 pixels
Display aspect ratio : 2.2:1
Frame rate mode : Constant
Frame rate : 29.970 fps
Color space : YUV
Chroma subsampling : 4:2:0
Bit depth : 8 bits
Scan type : Progressive
Bits/(Pixel*Frame) : 0.326
Stream size : 7.54 GiB (86%)
Title : EbP
Writing library : x264 core 133 r2334 a3ac64b
Encoding settings : cabac=1 / ref=11 / deblock=1:-3:-3 / analyse=0x3:0x133 / me=umh / subme=10 / psy=1 / psy_rd=0.90:0.00 / mixed_ref=1 / me_range=24 / chroma_me=1 / trellis=2 / 8x8dct=1 / cqm=0 / deadzone=21,11 / fast_pskip=0 / chroma_qp_offset=-2 / threads=12 / lookahead_threads=2 / sliced_threads=0 / nr=0 / decimate=0 / interlaced=0 / bluray_compat=0 / constrained_intra=0 / bframes=8 / b_pyramid=2 / b_adapt=2 / b_bias=0 / direct=3 / weightb=1 / open_gop=0 / weightp=2 / keyint=250 / keyint_min=25 / scenecut=40 / intra_refresh=0 / rc_lookahead=60 / rc=crf / mbtree=0 / crf=16.0 / qcomp=0.60 / qpmin=0 / qpmax=69 / qpstep=4 / vbv_maxrate=50000 / vbv_bufsize=62500 / crf_max=0.0 / nal_hrd=none / ip_ratio=1.10 / pb_ratio=1.10 / aq=1:0.65
Language : English
Default : Yes
Forced : No
Matrix coefficients : BT.709
_STATISTICS_WRITING_APP : mkvmerge v7.2.0 ('On Every Street') 64bit built on Sep 13 2014 15:52:10
_STATISTICS_WRITING_DATE_UTC : 2015-02-23 06:59:35
_STATISTICS_TAGS : BPS DURATION NUMBER_OF_FRAMES NUMBER_OF_BYTES
DURATION : 02:28:00.438000000
NUMBER_OF_FRAMES : 266147
NUMBER_OF_BYTES : 8242976800
Audio #1
ID : 2
Format : AC-3
Format/Info : Audio Coding 3
Mode extension : CM (complete main)
Format settings, Endianness : Big
Codec ID : A_AC3
Duration : 2h 28mn
Bit rate mode : Constant
Bit rate : 192 Kbps
Channel(s) : 2 channels
Channel positions : Front: L R
Sampling rate : 48.0 KHz
Bit depth : 16 bits
Compression mode : Lossy
Stream size : 203 MiB (2%)
Title : MVO
Language : Russian
Default : Yes
Forced : No
Audio #2
ID : 3
Format : AC-3
Format/Info : Audio Coding 3
Mode extension : CM (complete main)
Format settings, Endianness : Big
Codec ID : A_AC3
Duration : 2h 28mn
Bit rate mode : Constant
Bit rate : 640 Kbps
Channel(s) : 6 channels
Channel positions : Front: L C R, Side: L R, LFE
Sampling rate : 48.0 KHz
Bit depth : 16 bits
Compression mode : Lossy
Stream size : 678 MiB (8%)
Language : English
Default : No
Forced : No
Audio #3
ID : 4
Format : AC-3
Format/Info : Audio Coding 3
Mode extension : CM (complete main)
Format settings, Endianness : Big
Codec ID : A_AC3
Duration : 2h 28mn
Bit rate mode : Constant
Bit rate : 192 Kbps
Channel(s) : 1 channel
Channel positions : Front: C
Sampling rate : 48.0 KHz
Bit depth : 16 bits
Compression mode : Lossy
Stream size : 203 MiB (2%)
Title : Commentary
Language : English
Default : No
Forced : No
Text #1
ID : 5
Format : UTF-8
Codec ID : S_TEXT/UTF8
Codec ID/Info : UTF-8 Plain Text
Language : Russian
Default : No
Forced : No
Text #2
ID : 6
Format : UTF-8
Codec ID : S_TEXT/UTF8
Codec ID/Info : UTF-8 Plain Text
Title : English
Language : English
Default : No
Forced : No
Text #3
ID : 7
Format : PGS
Muxing mode : zlib
Codec ID : S_HDMV/PGS
Codec ID/Info : The same subtitle format used on BDs/HD-DVDs
Title : Sing-a-long
Language : English
Default : No
Forced : No
Text #4
ID : 8
Format : UTF-8
Codec ID : S_TEXT/UTF8
Codec ID/Info : UTF-8 Plain Text
Title : French
Language : French
Default : No
Forced : No
Text #5
ID : 9
Format : UTF-8
Codec ID : S_TEXT/UTF8
Codec ID/Info : UTF-8 Plain Text
Title : Spanish
Language : Spanish
Default : No
Forced : No
Menu
00:00:00.000 : en:00:00:00.000
00:03:05.819 : en:00:03:05.819
00:05:12.245 : en:00:05:12.245
00:07:33.086 : en:00:07:33.086
00:10:09.275 : en:00:10:09.275
00:15:52.919 : en:00:15:52.919
00:18:31.177 : en:00:18:31.177
00:20:25.091 : en:00:20:25.091
00:22:27.513 : en:00:22:27.513
00:28:28.040 : en:00:28:28.040
00:31:28.053 : en:00:31:28.053
00:34:57.629 : en:00:34:57.629
00:37:30.615 : en:00:37:30.615
00:40:33.264 : en:00:40:33.264
00:41:04.028 : en:00:41:04.028
00:43:09.287 : en:00:43:09.287
00:50:08.138 : en:00:50:08.138
00:54:59.062 : en:00:54:59.062
01:02:07.557 : en:01:02:07.557
01:06:24.080 : en:01:06:24.080
01:10:05.334 : en:01:10:05.334
01:13:16.192 : en:01:13:16.192
01:14:51.354 : en:01:14:51.354
01:29:15.517 : en:01:29:15.517
01:29:25.660 : en:01:29:25.660
01:30:49.611 : en:01:30:49.611
01:34:58.893 : en:01:34:58.893
01:41:23.978 : en:01:41:23.978
01:42:44.859 : en:01:42:44.859
01:45:54.882 : en:01:45:54.882
01:48:13.821 : en:01:48:13.821
01:54:46.913 : en:01:54:46.913
01:59:27.260 : en:01:59:27.260
02:00:56.316 : en:02:00:56.316
02:05:23.216 : en:02:05:23.216
02:06:44.063 : en:02:06:44.063
02:09:22.121 : en:02:09:22.121
02:11:06.792 : en:02:11:06.792
02:11:46.732 : en:02:11:46.732
02:15:00.793 : en:02:15:00.793
02:17:39.118 : en:02:17:39.118
02:21:34.219 : en:02:21:34.219
02:25:14.105 : en:02:25:14.105
02:26:28.680 : en:02:26:28.680

Скриншоты


_________________
Показать сообщения:    

Текущее время: Сегодня 18:37

Часовой пояс: GMT



Вы не можете начинать темы
Вы не можете отвечать на сообщения
Вы не можете редактировать свои сообщения
Вы не можете удалять свои сообщения
Вы не можете голосовать в опросах
Вы не можете прикреплять файлы к сообщениям
Вы не можете скачивать файлы