Важное объявление!
У Нас Все раздачи мультитрекерные, при нуле пиров в релизах, можете смело вставать на закачку!
 
Автор Сообщение

HUNTER

Стаж:
4 года 4 месяца
Сообщений:
56822

Репутация: 101

[+] [-]
Вне форума [Профиль] [ЛС]

Озадаченные / Baffled!
Страна: Великобритания, США
Жанр: мистика, триллер, детектив
Год выпуска: 1973
Продолжительность: 01:26:13
Перевод: Одноголосый закадровый Рутилов
Cубтитры: нет
Оригинальная аудиодорожка: английский
Режиссер: Филипп Лекок / Philip Leacock
В ролях: Леонард Нимой, Сьюзан Хэмпшир, Рейчел Робертс, Вера Майлс, Джуэл Бранч, Валери Тэйлор
Описание: Известного автогонщика одолевают таинственные видения, в которых он видит убийство незнакомой ему женщины. Однако, молодая исследовательница паранормального убеждает его в том, что видения, как и опасность в них, - реальны. Вместе они отправляются из Нью-Йорка в английскую глубинку, чтобы расследовать загадочную историю предполагаемого убийства.Фильм был снят в качестве пилотного эпизода для сериала в жанре "мистический детектив", однако проект так и не был запущен.
Доп. информация: За русскую звуковую дорожку большое спасибо Шайтан.
Спасибо:
За синхронизацию огромное спасибо Нордер.
При пересборе двд были использованы программы:
PgcDemux - разделение компонентов диска на файлы
Muxman - мультиплексирование и авторинг DVD
VobBlanker - реавторинг DVD

Скрин завершения проекта

Бонусы: Галерея.
Сэмпл: http://sendfile.su/1080674
Тип релиза: DVD5 (Custom)
Контейнер: DVD-Video
Видео: PAL 4:3 (720x576) VBR
Аудио: Russian (Dolby AC3, 192 Кбит/сек, 2 ch)
Аудио 2: English (Dolby AC3, 192 Кбит/сек, 2 ch)

DVDInfo

Title: SAMSUNG
Size: 3.74 Gb ( 3 925 164 KBytes ) - DVD-5
Enabled regions: 1, 2, 3, 4, 5, 6
VTS_01 :
Play Length: 00:00:29
Video: PAL 4:3 (720x576) VBR
Audio:
Not specified (Dolby AC3, 2 ch)
VTS_02 :
Play Length: 01:26:13
Video: PAL 4:3 (720x576) VBR
Audio:
Russian (Dolby AC3, 2 ch)
English (Dolby AC3, 2 ch)
VTS_03 :
Play Length: 00:04:25
Video: PAL 4:3 (720x576) VBR
Audio:
Not specified (Dolby AC3, 3 ch)
Menu Video:
PAL 4:3 (720x576) VBR
Menu Audio:
Not specified (Dolby AC3, 1 ch)
Menu Subtitles:
Not specified
Menu English Language Unit :
Root Menu
Chapter (PTT) Menu

MediaInfo

Общее
Полное имя : J:\Baffled_1973\VIDEO_TS\VTS_02_1.VOB
Формат : MPEG-PS
Размер файла : 1024 Мбайт
Продолжительность : 24 м.
Режим общего битрейта : Переменный
Общий поток : 5913 Кбит/сек
Видео
Идентификатор : 224 (0xE0)
Формат : MPEG Video
Версия формата : Version 2
Профиль формата : Main@Main
Параметр BVOP формата : Да
Параметр матрицы формата : По умолчанию
Продолжительность : 24 м.
Вид битрейта : Переменный
Битрейт : 5411 Кбит/сек
Максимальный битрейт : 8000 Кбит/сек
Ширина : 720 пикселей
Высота : 576 пикселей
Соотношение сторон : 4:3
Частота кадров : 25,000 кадров/сек
Стандарт вещания : PAL
Цветовое пространство : YUV
Субдискретизация насыщенности : 4:2:0
Битовая глубина : 8 бит
Тип развёртки : Чересстрочная
Порядок развёртки : Верхнее поле первое
Метод сжатия : С потерями
Бит/(Пиксели*Кадры) : 0.522
Размер потока : 937 Мбайт (92%)
Основные цвета : BT.601 PAL
Характеристики трансфера : BT.470 System B, BT.470 System G
Коэффициенты матрицы : BT.601
Аудио #1
Идентификатор : 189 (0xBD)-128 (0x80)
Формат : AC-3
Формат/Информация : Audio Coding 3
Расширение режима : CM (complete main)
Параметр Endianness формата : Big
Режим смешивания : DVD-Video
Продолжительность : 24 м.
Вид битрейта : Постоянный
Битрейт : 192 Кбит/сек
Каналы : 2 канала
Расположение каналов : Front: L R
Частота : 48,0 КГц
Битовая глубина : 16 бит
Метод сжатия : С потерями
Размер потока : 33,2 Мбайт (3%)
Аудио #2
Идентификатор : 189 (0xBD)-129 (0x81)
Формат : AC-3
Формат/Информация : Audio Coding 3
Расширение режима : CM (complete main)
Параметр Endianness формата : Big
Режим смешивания : DVD-Video
Продолжительность : 24 м.
Вид битрейта : Постоянный
Битрейт : 192 Кбит/сек
Каналы : 2 канала
Расположение каналов : Front: L R
Частота : 48,0 КГц
Битовая глубина : 16 бит
Метод сжатия : С потерями
Размер потока : 33,2 Мбайт (3%)
Меню

Постеры

Скриншоты меню

Скриншоты


_________________
Показать сообщения:    

Текущее время: Сегодня 06:16

Часовой пояс: GMT



Вы не можете начинать темы
Вы не можете отвечать на сообщения
Вы не можете редактировать свои сообщения
Вы не можете удалять свои сообщения
Вы не можете голосовать в опросах
Вы не можете прикреплять файлы к сообщениям
Вы не можете скачивать файлы