Важное объявление!
У Нас Все раздачи мультитрекерные, при нуле пиров в релизах, можете смело вставать на закачку!
 
Автор Сообщение

HUNTER

Стаж:
4 года 4 месяца
Сообщений:
56749

Репутация: 101

[+] [-]
Вне форума [Профиль] [ЛС]

Оз: Возвращение в Изумрудный Город / Legends of Oz: Dorothy's Return
Страна: США, Индия, Prana Animation Studios, Prana Studios, Summertime Entertainment (II)
Жанр: Мюзикл, семейный
Продолжительность: 01:32:02
Год выпуска: 2013
Перевод: Профессиональный (дублированный)
Русские субтитры: нет
Английские субтитры: есть
Режиссёр: Уилл Финн, Дэн Ст. Пьер / Will Finn, Dan St. Pierre
Роли озвучивали: Лиа Мишель, Патрик Стюарт, Джеймс Белуши, Дэн Эйкройд, Келси Грэммер, Меган Хилти, Хью Дэнси, Оливер Плэтт, Бернадетт Питерс, Мартин
Описание: Дороти снова магическим образом переносится в страну Оз, чтобы спасти от беды ее жителей. Но оказывается, что старые друзья Дороти - Страшила, Железный Дровосек и Храбрый Лев - исчезли. Путешествуя по стране в поисках своих друзей, Дороти встречает новых попутчиков - Капитана Зефира, Фарфоровую Принцессу и филина Савву. Дороти должна помочь таким разным героям объединиться, чтобы одолеть нового злодея - шута Джестера, который хочет захватить страну Оз при помощи черной магии.


Качество: BDRip
Формат: MKV
Видео: MPEG-4 AVC, 1814 Кбит/с, 720x400
Аудио: AC3, 6 ch, 448 Кбит/с
Субтитры: отсутствуют

Подробные технические данные

GeneralUnique ID : 186351769325625687475931909252391511033 (0x8C320B97093791B3A7FC5257EE9E23F9)Complete name : C:Legends.Of.Oz.Dorothys.Return.2013.D.BDRip.ExKinoRay..mkvFormat : MatroskaFormat version : Version 2File size : 1.46 GiBDuration : 1h 32mnOverall bit rate : 2 263 KbpsMovie name : Legends of Oz 2013 from ExKinoRayEncoded date : UTC 2014-08-16 16:47:30Writing application : mkvmerge v4.9.1 ('Ich will') built on Jul 11 2011 23:53:15Writing library : libebml v1.2.1 + libmatroska v1.1.1
VideoID : 1Format : AVCFormat/Info : Advanced Video CodecFormat profile : High@L4.1Format settings, CABAC : YesFormat settings, ReFrames : 8 framesCodec ID : V_MPEG4/ISO/AVCDuration : 1h 32mnBit rate : 1 814 KbpsWidth : 720 pixelsHeight : 400 pixelsDisplay aspect ratio : 16:9Frame rate mode : ConstantFrame rate : 23.976 fpsColor space : YUVChroma subsampling : 4:2:0Bit depth : 8 bitsScan type : ProgressiveBits/(Pixel*Frame) : 0.263Stream size : 1.14 GiB (78%)Title : Enigma-Vladislav71Writing library : x264 core 116 r2044 392e762Encoding settings : cabac=1 / ref=8 / deblock=1:-2:-2 / analyse=0x3:0x113 / me=umh / subme=9 / psy=1 / psy_rd=1.00:0.20 / mixed_ref=1 / me_range=32 / chroma_me=1 / trellis=2 / 8x8dct=1 / cqm=0 / deadzone=21,11 / fast_pskip=0 / chroma_qp_offset=-3 / threads=12 / sliced_threads=0 / nr=0 / decimate=0 / interlaced=0 / bluray_compat=0 / constrained_intra=0 / bframes=9 / b_pyramid=2 / b_adapt=2 / b_bias=0 / direct=3 / weightb=1 / open_gop=0 / weightp=2 / keyint=240 / keyint_min=23 / scenecut=40 / intra_refresh=0 / rc=2pass / mbtree=0 / bitrate=1814 / ratetol=1.0 / qcomp=0.60 / qpmin=0 / qpmax=69 / qpstep=4 / cplxblur=20.0 / qblur=0.5 / ip_ratio=1.40 / pb_ratio=1.30 / aq=1:1.00Default : YesForced : No
AudioID : 2Format : AC-3Format/Info : Audio Coding 3Mode extension : CM (complete main)Format settings, Endianness : BigCodec ID : A_AC3Duration : 1h 32mnBit rate mode : ConstantBit rate : 448 KbpsChannel(s) : 6 channelsChannel positions : Front: L C R, Side: L R, LFESampling rate : 48.0 KHzBit depth : 16 bitsCompression mode : LossyStream size : 295 MiB (20%)Title : DUBLanguage : RussianDefault : YesForced : No
TextID : 3Format : UTF-8Codec ID : S_TEXT/UTF8Codec ID/Info : UTF-8 Plain TextLanguage : EnglishDefault : NoForced : No
Menu00:00:00.000 : en:Chapter 0100:03:40.970 : en:Chapter 0200:05:14.397 : en:Chapter 0300:08:56.786 : en:Chapter 0400:12:02.012 : en:Chapter 0500:15:57.331 : en:Chapter 0600:19:32.629 : en:Chapter 0700:22:26.887 : en:Chapter 0800:25:17.182 : en:Chapter 0900:28:02.055 : en:Chapter 1000:29:57.337 : en:Chapter 1100:33:33.761 : en:Chapter 1200:35:27.125 : en:Chapter 1300:38:47.533 : en:Chapter 1400:43:44.580 : en:Chapter 1500:46:06.764 : en:Chapter 1600:48:36.580 : en:Chapter 1700:51:07.647 : en:Chapter 1800:54:42.737 : en:Chapter 1900:56:01.441 : en:Chapter 2000:59:25.853 : en:Chapter 2101:04:15.685 : en:Chapter 2201:06:55.011 : en:Chapter 2301:11:13.936 : en:Chapter 2401:14:10.904 : en:Chapter 2501:17:43.367 : en:Chapter 2601:21:38.143 : en:Chapter 2701:24:06.332 : en:Chapter 28

Скриншоты


_________________
Показать сообщения:    

Текущее время: Сегодня 22:30

Часовой пояс: GMT



Вы не можете начинать темы
Вы не можете отвечать на сообщения
Вы не можете редактировать свои сообщения
Вы не можете удалять свои сообщения
Вы не можете голосовать в опросах
Вы не можете прикреплять файлы к сообщениям
Вы не можете скачивать файлы