Важное объявление!
У Нас Все раздачи мультитрекерные, при нуле пиров в релизах, можете смело вставать на закачку!
 
Автор Сообщение

HUNTER

Стаж:
4 года 4 месяца
Сообщений:
56798

Репутация: 101

[+] [-]
Вне форума [Профиль] [ЛС]

Одноклассники 2 / Grown Ups 2«They'll do anything for their families... except grow up»-
Страна: США
Жанр: комедия
Год выпуска: 2013
Продолжительность: 01:40:58-Перевод: Профессиональный (Полное дублирование) [Blu-ray CEE]
+ Ukrainian [Blu-ray CEE]
Оригинальная аудиодорожка: English
Cубтитры: Russian (iTunes), English, English (SDH), English (SDH-COLORED)-Режиссер: Деннис Дуган / Dennis Dugan
В ролях: Адам Сэндлер (Lenny Feder), Кевин Джеймс (Eric Lamonsoff), Крис Рок (Kurt McKenzie), Дэвид Спейд (Marcus Higgins), Сальма Хайек (Roxanne Chase-Feder), Майя Рудольф (Deanne McKenzie), Мария Белло (Sally Lamonsoff), Ник Свардсон (Nick), Александр Людвиг (Braden), Колин Куинн (Dickie Bailey), Стив Бушеми (Wiley), Тэйлор Лотнер (Frat Boy Andy, в титрах не указан)- -Описание: После того как Ленни Федер переезжает с семьей обратно в родной город, он и его друзья извлекут немало уроков, когда их дети окончат школу…-Качество видео: BDRip 720p | исх. Grown.Ups.2.COMPLETE.BLURAY-LAZERS | Сэмпл
Рип: TayTO-Формат видео: MKV-Видео: 1280x692 (1.85:1), 23.976 fps, MPEG4-AVC ~6862 kbps avg, 0.322 bit/pixel
Аудио 1: 48 kHz, AC3, 3/2 (L,C,R,l,r) + LFE ch, ~640.00 kbps avg | Профессиональный (Полное дублирование) [Blu-ray CEE]
Аудио 2: 48 kHz, AC3, 3/2 (L,C,R,l,r) + LFE ch, ~640.00 kbps avg | Ukrainian [Blu-ray CEE]
Аудио 3: 48 kHz, DTS, 3/2 (L,C,R,l,r) + LFE ch, ~1536.00 kbps avg | English-Формат субтитров: softsub (srt)
Главы: есть-

MediaInfo


General
Unique ID : 243188199443811390525809902261626180803 (0xB6F457F26FDFC526BBEFAA8291D794C3)
Complete name : D:\Фильмы\Grown.Ups.2.2013.720p.BluRay.Rus.Ukr.Eng.HDCLUB.mkv
Format : Matroska
Format version : Version 2
File size : 6.93 GiB
Duration : 1h 40mn
Overall bit rate : 9 823 Kbps
Movie name : Grown Ups 2 (2013) - Release for HDCLUB
Encoded date : UTC 2013-11-24 10:35:57
Writing application : mkvmerge v3.4.0 ('Rapunzel') built on May 15 2010 09:38:20
Writing library : libebml v0.8.0 + libmatroska v0.9.0
Video
ID : 1
Format : AVC
Format/Info : Advanced Video Codec
Format profile : High@L4.1
Format settings, CABAC : Yes
Format settings, ReFrames : 9 frames
Codec ID : V_MPEG4/ISO/AVC
Duration : 1h 40mn
Bit rate : 6 838 Kbps
Width : 1 280 pixels
Height : 692 pixels
Display aspect ratio : 1.85:1
Frame rate mode : Constant
Frame rate : 23.976 fps
Color space : YUV
Chroma subsampling : 4:2:0
Bit depth : 8 bits
Scan type : Progressive
Bits/(Pixel*Frame) : 0.322
Stream size : 4.82 GiB (70%)
Title : Grown Ups 2 (2013) - Release for HDCLUB
Writing library : x264 core 138 r2358 9e941d1
Encoding settings : cabac=1 / ref=9 / deblock=1:-3:-3 / analyse=0x3:0x133 / me=tesa / subme=11 / psy=1 / psy_rd=1.00:0.00 / mixed_ref=1 / me_range=16 / chroma_me=1 / trellis=2 / 8x8dct=1 / cqm=0 / deadzone=21,11 / fast_pskip=0 / chroma_qp_offset=-2 / threads=12 / lookahead_threads=2 / sliced_threads=0 / nr=0 / decimate=1 / interlaced=0 / bluray_compat=0 / constrained_intra=0 / bframes=9 / b_pyramid=2 / b_adapt=2 / b_bias=0 / direct=3 / weightb=1 / open_gop=0 / weightp=2 / keyint=250 / keyint_min=23 / scenecut=40 / intra_refresh=0 / rc=crf / mbtree=0 / crf=15.3 / qcomp=0.70 / qpmin=0 / qpmax=69 / qpstep=4 / ip_ratio=1.40 / pb_ratio=1.30 / aq=1:0.90
Language : English
Default : Yes
Forced : No
Matrix coefficients : BT.709
Audio #1
ID : 2
Format : AC-3
Format/Info : Audio Coding 3
Mode extension : CM (complete main)
Format settings, Endianness : Big
Codec ID : A_AC3
Duration : 1h 40mn
Bit rate mode : Constant
Bit rate : 640 Kbps
Channel(s) : 6 channels
Channel positions : Front: L C R, Side: L R, LFE
Sampling rate : 48.0 KHz
Bit depth : 16 bits
Compression mode : Lossy
Stream size : 462 MiB (7%)
Title : AC3 5.1 @ 640 kbps - DUB, Blu-ray CEE
Language : Russian
Default : Yes
Forced : No
Audio #2
ID : 3
Format : AC-3
Format/Info : Audio Coding 3
Mode extension : CM (complete main)
Format settings, Endianness : Big
Codec ID : A_AC3
Duration : 1h 40mn
Bit rate mode : Constant
Bit rate : 640 Kbps
Channel(s) : 6 channels
Channel positions : Front: L C R, Side: L R, LFE
Sampling rate : 48.0 KHz
Bit depth : 16 bits
Compression mode : Lossy
Stream size : 462 MiB (7%)
Title : AC3 5.1 @ 640 kbps - DUB, Blu-ray CEE
Language : Ukrainian
Default : No
Forced : No
Audio #3
ID : 4
Format : DTS
Format/Info : Digital Theater Systems
Mode : 16
Format settings, Endianness : Big
Codec ID : A_DTS
Duration : 1h 40mn
Bit rate mode : Constant
Bit rate : 1 509 Kbps
Channel(s) : 6 channels
Channel positions : Front: L C R, Side: L R, LFE
Sampling rate : 48.0 KHz
Bit depth : 24 bits
Compression mode : Lossy
Delay relative to video : 11ms
Stream size : 1.06 GiB (15%)
Title : DTS 5.1 @ 1536 kbps
Language : English
Default : No
Forced : No
Text #1
ID : 5
Format : UTF-8
Codec ID : S_TEXT/UTF8
Codec ID/Info : UTF-8 Plain Text
Title : iTunes
Language : Russian
Default : No
Forced : No
Text #2
ID : 6
Format : UTF-8
Codec ID : S_TEXT/UTF8
Codec ID/Info : UTF-8 Plain Text
Language : English
Default : No
Forced : No
Text #3
ID : 7
Format : UTF-8
Codec ID : S_TEXT/UTF8
Codec ID/Info : UTF-8 Plain Text
Title : SDH
Language : English
Default : No
Forced : No
Text #4
ID : 8
Format : UTF-8
Codec ID : S_TEXT/UTF8
Codec ID/Info : UTF-8 Plain Text
Title : SDH-COLORED
Language : English
Default : No
Forced : No
Menu
00:00:00.000 : en:00:00:00.000
00:04:30.937 : en:00:04:30.937
00:12:02.555 : en:00:12:02.555
00:18:14.677 : en:00:18:14.677
00:25:34.158 : en:00:25:34.158
00:29:47.661 : en:00:29:47.661
00:37:02.387 : en:00:37:02.387
00:45:15.713 : en:00:45:15.713
00:48:53.430 : en:00:48:53.430
00:54:22.593 : en:00:54:22.593
01:00:49.938 : en:01:00:49.938
01:05:15.662 : en:01:05:15.662
01:10:52.415 : en:01:10:52.415
01:16:49.355 : en:01:16:49.355
01:23:26.793 : en:01:23:26.793
01:31:02.666 : en:01:31:02.666

Скриншоты


_________________
Показать сообщения:    

Текущее время: Сегодня 03:57

Часовой пояс: GMT



Вы не можете начинать темы
Вы не можете отвечать на сообщения
Вы не можете редактировать свои сообщения
Вы не можете удалять свои сообщения
Вы не можете голосовать в опросах
Вы не можете прикреплять файлы к сообщениям
Вы не можете скачивать файлы