Важное объявление!
У Нас Все раздачи мультитрекерные, при нуле пиров в релизах, можете смело вставать на закачку!
 
Автор Сообщение

HUNTER

Стаж:
4 года 4 месяца
Сообщений:
56772

Репутация: 101

[+] [-]
Вне форума [Профиль] [ЛС]

--Однажды в Риме / When in Rome«Все дороги ведут в Рим. Поиски любви ведут туда же...»-
-Год выпуска: 2010
Страна: США
Жанр: Комедия, мелодрама
Продолжительность: 01:30:47
Перевод №1: Профессиональный (дублированный)
Перевод №2: Украинский профессиональный (дублированный)
Субтитры: Русские, Украинские, Английские
Оригинальная аудиодорожка: английский-Режиссер: Марк Стивен Джонсон / Mark Steven Johnson
Сценарий: Дэвид Вайсман / David Weissman, Дэвид Даймонд / David Diamond
Продюсер: Гари Фостер / Gary Foster, Марк Стивен Джонсон / Mark Steven Johnson, Эндрю Панай / Andrew Panay, Минди Фаррелл / Mindy Farrell, Стивен Роффер / Steven Roffer, Эзра Свердлоу / Ezra Swerdlow, Рикки Лиа Бестолл / Rikki Lea Bestall, Ким Х. Уинтер / Kim H. Winther, Джозеф Е. Иберти / Joseph E. Iberti, Энцо Систи / Enzo Sisti
Оператор: Джон Бэйли / John Bailey
Композитор: Тобиаш Карлссон / Tobias Karlsson, Кристофер Янг / Christopher Young
В ролях: Кристен Белл (Beth), Джош Дюамель (Nick), Уилл Арнетт (Antonio), Алексис Дзена (Joan), Джон Хидер (Lance), Дэкс Шепард (Gale), Дэнни ДеВито (Al), Анжелика Хьюстон (Celeste), Кейт Микуччи (Stacy), Пегги Липтон (Priscilla), Бобби Мойнахан(Puck), Кейр О’Доннелл (Priest (Father Dino))-Описание: Бетти живёт в Нью-Йорке и абсолютно не верит в романтику. Но однажды её младшая сестра приглашает Бетти на свою свадьбу — в старинном палаццо в самом сердце вечного города, Рима. По воле случая, как раз напротив оказывается легендарный Fantana D`Amore, фонтан, куда туристы со всего света бросают монетки, загадывая удачу в любви. Отчаянная девушка похищает из фонтана несколько монет, но она не знает, что из-за древней магии хозяева этих монеток превращаются в её отчаянных воздыхателей, которые последуют за ней через океан, настойчиво предлагая руку и сердце. Сумеет ли Бетти избавиться от назойливых поклонников и найти свою настоящую любовь?-
Доп. информация: Исходник Однажды в Риме / When in Rome (Марк Стивен Джонсон / Mark Steven Johnson) [2010, США, Комедия, мелодрама, Blu-ray 1080p] DUB Sub rus + original eng-Качество: Blu-ray Rip 1080p
Формат: MKV
Видео: MPEG-4 AVC (H264), High Profile 4.1, 1920x800, 23.976 fps, ~17500 kbps avg, bit/(pixel*frame) 0.476
Аудио №1: Russian: 48 kHz, AC3, 3/2 (L,C,R,l,r) + LFE ch, ~640.00 kbps avg //дублированный
Аудио №2: Ukrainian: 48 kHz, AC3, 3/2 (L,C,R,l,r) + LFE ch, ~640.00 kbps avg //дублированный
Аудио №3: English: 48 kHz, DTS, 3/2 (L,C,R,l,r) + LFE ch, ~1510.00 kbps avg //оригинал
Субтитры: Russian forced (SRT), Russian full (SRT), Ukrainian full (SRT), English (SRT)
Навигация по главам: есть-

СкриншотыMediaInfo
D:\When in Rome [Однажды в Риме] (2010) 1920x800 BDRip RusEngSubsChpt.mkv
General
Unique ID : 203080706816878418050947926650403267428 (0x98C7EBE366575018961070668731A364)
Complete name : D:\When in Rome [Однажды в Риме] (2010) 1920x800 BDRip RusEngSubsChpt.mkv
Format : Matroska
Format version : Version 4 / Version 2
File size : 13.2 GiB
Duration : 1h 30mn
Overall bit rate : 20.7 Mbps
Movie name : When in Rome (-=RbM=-)
Encoded date : UTC 2014-06-10 17:38:59
Writing application : mkvmerge v6.6.0 ('The Edge Of The In Between') built on Dec 1 2013 17:55:00
Writing library : libebml v1.3.0 + libmatroska v1.4.1
Video #1
ID : 1
Format : AVC
Format/Info : Advanced Video Codec
Format profile : High@L4.1
Format settings, CABAC : Yes
Format settings, ReFrames : 5 frames
Codec ID : V_MPEG4/ISO/AVC
Duration : 1h 30mn
Bit rate : 17.5 Mbps
Width : 1 920 pixels
Height : 800 pixels
Display aspect ratio : 2.40:1
Frame rate mode : Constant
Frame rate : 23.976 fps
Color space : YUV
Chroma subsampling : 4:2:0
Bit depth : 8 bits
Scan type : Progressive
Bits/(Pixel*Frame) : 0.476
Stream size : 11.1 GiB (85%)
Title : When in Rome (70% of the original)
Writing library : x264 core 142 r2431+42 c69a006 tMod [8-bit@all X86_64]
Encoding settings : cabac=1 / ref=5 / deblock=1:-3:-3 / analyse=0x3:0x133 / me=umh / subme=11 / psy=1 / fade_compensate=0.00 / psy_rd=1.00:0.00 / mixed_ref=1 / me_range=32 / chroma_me=1 / trellis=2 / 8x8dct=1 / cqm=0 / deadzone=21,11 / fast_pskip=0 / chroma_qp_offset=-2 / threads=12 / lookahead_threads=3 / sliced_threads=0 / nr=0 / decimate=1 / interlaced=0 / bluray_compat=0 / constrained_intra=0 / fgo=0 / bframes=10 / b_pyramid=2 / b_adapt=2 / b_bias=0 / direct=3 / weightb=1 / open_gop=0 / weightp=2 / keyint=240 / keyint_min=23 / scenecut=40 / intra_refresh=0 / rc=crf / mbtree=0 / crf=18.0000 / qcomp=0.60 / qpmin=0:0:0 / qpmax=69:69:69 / qpstep=4 / ip_ratio=1.40 / pb_ratio=1.30 / aq=3:0.80 / aq-sensitivity=10.00 / aq-factor=1.00:1.00:1.00 / aq2=0 / aq3=0
Language : English
Default : Yes
Forced : No
Color primaries : BT.709
Transfer characteristics : BT.709
Matrix coefficients : BT.709
Audio #2
ID : 2
Format : AC-3
Format/Info : Audio Coding 3
Mode extension : CM (complete main)
Format settings, Endianness : Big
Codec ID : A_AC3
Duration : 1h 30mn
Bit rate mode : Constant
Bit rate : 640 Kbps
Channel(s) : 6 channels
Channel positions : Front: L C R, Side: L R, LFE
Sampling rate : 48.0 KHz
Bit depth : 16 bits
Compression mode : Lossy
Stream size : 416 MiB (3%)
Title : Dub AC3 5.1ch 640kbps
Language : Russian
Default : Yes
Forced : No
Audio #3
ID : 3
Format : AC-3
Format/Info : Audio Coding 3
Mode extension : CM (complete main)
Format settings, Endianness : Big
Codec ID : A_AC3
Duration : 1h 30mn
Bit rate mode : Constant
Bit rate : 640 Kbps
Channel(s) : 6 channels
Channel positions : Front: L C R, Side: L R, LFE
Sampling rate : 48.0 KHz
Bit depth : 16 bits
Compression mode : Lossy
Stream size : 416 MiB (3%)
Title : Dub AC3 5.1ch 640kbps
Language : Ukrainian
Default : No
Forced : No
Audio #4
ID : 4
Format : DTS
Format/Info : Digital Theater Systems
Mode : 16
Format settings, Endianness : Big
Codec ID : A_DTS
Duration : 1h 30mn
Bit rate mode : Constant
Bit rate : 1 509 Kbps
Channel(s) : 6 channels
Channel positions : Front: L C R, Side: L R, LFE
Sampling rate : 48.0 KHz
Bit depth : 24 bits
Compression mode : Lossy
Stream size : 980 MiB (7%)
Title : Original DTS 5.1ch 1510kbps
Language : English
Default : No
Forced : No
Text #5
ID : 5
Format : UTF-8
Codec ID : S_TEXT/UTF8
Codec ID/Info : UTF-8 Plain Text
Title : forced
Language : Russian
Default : Yes
Forced : No
Text #6
ID : 6
Format : UTF-8
Codec ID : S_TEXT/UTF8
Codec ID/Info : UTF-8 Plain Text
Title : full
Language : Russian
Default : No
Forced : No
Text #7
ID : 7
Format : UTF-8
Codec ID : S_TEXT/UTF8
Codec ID/Info : UTF-8 Plain Text
Title : forced
Language : Ukrainian
Default : No
Forced : No
Text #8
ID : 8
Format : UTF-8
Codec ID : S_TEXT/UTF8
Codec ID/Info : UTF-8 Plain Text
Title : full
Language : Ukrainian
Default : No
Forced : No
Text #9
ID : 9
Format : UTF-8
Codec ID : S_TEXT/UTF8
Codec ID/Info : UTF-8 Plain Text
Title : full
Language : English
Default : No
Forced : No
Menu
00:00:00.000 : en:1. Opening Credits / Beth's Big Event
00:05:10.060 : en:2. Joan's Getting Married
00:10:57.198 : en:3. A Wedding in Rome
00:14:36.334 : en:4. Beth Makes a Speech
00:18:48.586 : en:5. The Wedding Dance
00:22:39.233 : en:6. In the Fountain of Love
00:26:50.526 : en:7. Beth Returns Home
00:28:57.277 : en:8. The Coins in New York
00:35:16.197 : en:9. Front Page News
00:40:14.954 : en:10. Beth on the Run
00:44:20.908 : en:11. Recon on Beth
00:49:15.744 : en:12. Nick Gets a Date
00:54:26.013 : en:13. Safe at the Museum
00:59:52.088 : en:14. Breaking the Spells
01:05:51.948 : en:15. Driving the Gridlock
01:09:47.642 : en:16. Returning the Coins
01:14:57.243 : en:17. The Last Coin
01:17:27.726 : en:18. Another Wedding
01:22:09.091 : en:19. Beth Objects
01:24:36.488 : en:20. The End / End Credits
x264 log
x264 [info]: frame I:1001 Avg QP:16.94 size:282254 PSNR Mean Y:46.21 U:49.49 V:51.23 Avg:46.99 Global:46.45
x264 [info]: frame P:26807 Avg QP:18.15 size:136248 PSNR Mean Y:45.19 U:51.15 V:53.20 Avg:46.12 Global:45.47
x264 [info]: frame B:102792 Avg QP:20.28 size: 80585 PSNR Mean Y:43.30 U:48.08 V:51.13 Avg:44.25 Global:43.64
x264 [info]: consecutive B-frames: 1.6% 1.8% 10.3% 9.9% 13.6% 55.0% 4.4% 0.8% 0.8% 1.0% 0.7%
x264 [info]: mb I I16..4: 3.8% 91.2% 5.0%
x264 [info]: mb P I16..4: 0.4% 32.1% 0.8% P16..4: 19.7% 26.5% 12.2% 1.5% 0.1% skip: 6.7%
x264 [info]: mb B I16..4: 0.1% 8.5% 0.1% B16..8: 40.8% 21.4% 5.1% direct: 9.0% skip:15.0% L0:45.8% L1:41.1% BI:13.0%
x264 [info]: 8x8 transform intra:96.7% inter:67.1%
x264 [info]: direct mvs spatial:99.9% temporal:0.1%
x264 [info]: coded y,uvDC,uvAC intra: 98.1% 90.6% 72.2% inter: 55.9% 40.7% 13.5%
x264 [info]: i16 v,h,dc,p: 63% 7% 6% 25%
x264 [info]: i8 v,h,dc,ddl,ddr,vr,hd,vl,hu: 7% 8% 15% 9% 13% 11% 13% 10% 14%
x264 [info]: i4 v,h,dc,ddl,ddr,vr,hd,vl,hu: 8% 8% 12% 8% 15% 14% 14% 10% 12%
x264 [info]: i8c dc,h,v,p: 47% 17% 16% 19%
x264 [info]: Weighted P-Frames: Y:9.5% UV:7.8%
x264 [info]: ref P L0: 45.3% 11.1% 23.8% 9.9% 9.0% 0.9% 0.1%
x264 [info]: ref B L0: 76.6% 16.6% 5.3% 1.5%
x264 [info]: ref B L1: 91.2% 8.8%
x264 [info]: SSIM Mean Y:0.9694189 (15.145db)
x264 [info]: PSNR Mean Y:43.711 U:48.719 V:51.555 Avg:44.658 Global:43.978 kb/s:17944.81
x264 [info]: encoded 130600 frames, 4.532 fps, 17944.82 kb/s, 11652 MB
x264 [info]: ended at Tue Jun 10 16:04:39 2014
x264 [info]: encoding duration 8:00:19

_________________
Показать сообщения:    

Текущее время: Сегодня 11:39

Часовой пояс: GMT



Вы не можете начинать темы
Вы не можете отвечать на сообщения
Вы не можете редактировать свои сообщения
Вы не можете удалять свои сообщения
Вы не можете голосовать в опросах
Вы не можете прикреплять файлы к сообщениям
Вы не можете скачивать файлы