Важное объявление!
У Нас Все раздачи мультитрекерные, при нуле пиров в релизах, можете смело вставать на закачку!
 
Автор Сообщение

HUNTER

Стаж:
4 года 4 месяца
Сообщений:
56790

Репутация: 101

[+] [-]
Вне форума [Профиль] [ЛС]

Одиссей / Ulysses
Страна: Италия (Mondo TV)
Жанр: Приключения, семейный, мультфильм
Продолжительность: 01:28:56
Год выпуска: 1998
Перевод: Профессиональный (многоголосый закадровый)
Русские субтитры: нет
Режиссёр: Питер Чои, Орландо Корради / Peter Choi, Orlando Corradi-Описание: Царь Итаки Одиссей впадает в немилость к богам после того, как помогает грекам обманом завладеть Троей. Лишенный поддержки бога морей, он вынужден долгие годы добираться до родного острова. В этом нелегком путешествии его ждет множество опасных приключений. Он попадет на остров циклопов и его корабли подвергнутся проверке на прочность богом ветров Эолом.-Доп. материалы: отсутствуют
Качество: DVD5 (Custom)
Формат: DVD-video
Видео: MPEG-2 PAL, 720x576, 25fps, ~5400 Kb/s
Аудио: AC3, 48khz, 2ch, 192 kb/s, Русский
Субтитры: отсутствуют

Релиз:

DVDInfo

Title: Ulysses 1998 DVD5Size: 3.63 Gb ( 3 809 254,00 KBytes ) - DVD-5Enabled regions: 1, 2, 3, 4, 5, 6, 7, 8
VTS_01 : Play Length: 01:28:56 Video: PAL 4:3 (720x576) VBR Audio: Russian (Dolby AC3, 2 ch)
* Menus Information *
VIDEO_TS MenuVideo: NTSC 4:3 (720x480) VBR Auto Pan&Scan, Auto LetterboxedPortugues Language Unit : Title Menu
VTS_01 MenuVideo: PAL 4:3 (720x576) VBRAudio: Not specified (Dolby AC3, 2 ch)Portugues Language Unit : Root Menu Angle menu Chapter (PTT) Menu

MediaInfo

ОбщееПолное имя : E:\MULTFILMS\Ulysses 1998 DVD5\VIDEO_TS\VTS_01_1.VOBФормат : MPEG-PSРазмер файла : 1024 МбайтПродолжительность : 24 м.Режим общего битрейта : ПеременныйОбщий поток : 5737 Кбит/сек
ВидеоИдентификатор : 224 (0xE0)Формат : MPEG VideoВерсия формата : Version 2Профиль формата : Main@MainПараметр BVOP формата : ДаПараметр матрицы формата : ВыборочнаяПараметр GOP формата : M=3, N=12Продолжительность : 24 м.Вид битрейта : ПеременныйБитрейт : 5431 Кбит/секМаксимальный битрейт : 9000 Кбит/секШирина : 720 пикселейВысота : 576 пикселейСоотношение сторон : 4:3Частота кадров : 25,000 кадров/секСтандарт вещания : PALЦветовое пространство : YUVСубдискретизация насыщенности : 4:2:0Битовая глубина : 8 битТип развёртки : ЧересстрочнаяПорядок развёртки : Верхнее поле первоеМетод сжатия : С потерямиБит/(Пиксели*Кадры) : 0.524Временной код первого кадра : 10:00:00:00Оригинал временного кода : Group of pictures headerРазмер потока : 969 Мбайт (95%)
АудиоИдентификатор : 189 (0xBD)-128 (0x80)Формат : AC-3Формат/Информация : Audio Coding 3Расширение режима : CM (complete main)Параметр Endianness формата : BigРежим смешивания : DVD-VideoПродолжительность : 24 м.Вид битрейта : ПостоянныйБитрейт : 192 Кбит/секКаналы : 2 каналаРасположение каналов : Front: L RЧастота : 48,0 КГцБитовая глубина : 16 битМетод сжатия : С потерямиЗадержка видео : -80 мс.Размер потока : 34,3 Мбайт (3%)

Скриншоты меню

Скриншоты


Информация по сборке

Диск собран из бразильского DVD. Португальская аудиодорожка заменена на русскую.
Используемый софт:
PgcDemux (Разборка диска)
BeSweet (Распаковка звука в формат WAV)
Adobe Audition (Синхронизация аудио)
Minnetonka Audio (Конвертация звука в формат Dolby AC3)
MuxMan (Сборка диска)
Adobe Photoshop (Редактирование пунктов меню)
DVDSubEdit (Редактирование подсветки кнопок меню)
DVD Remake Pro (Реавторинг DVD)

_________________
Показать сообщения:    

Текущее время: Сегодня 10:25

Часовой пояс: GMT



Вы не можете начинать темы
Вы не можете отвечать на сообщения
Вы не можете редактировать свои сообщения
Вы не можете удалять свои сообщения
Вы не можете голосовать в опросах
Вы не можете прикреплять файлы к сообщениям
Вы не можете скачивать файлы