Важное объявление!
У Нас Все раздачи мультитрекерные, при нуле пиров в релизах, можете смело вставать на закачку!
 
Автор Сообщение

димитри37

Стаж:
3 года 8 месяцев
Сообщений:
1237

Репутация: 127

[+] [-]
Вне форума [Профиль] [ЛС]

Одинокое место для смерти / A lonely place for dying
Страна: США
Жанр: шпионский триллер
Год выпуска: 2012
Продолжительность: 01:33:13
Перевод: Одноголосый закадровый - А. Кедров (antoniolagrande)
Перевод с английского: А. Кедров (при участии zelesk, mikeOS и Nelly82)
Cубтитры: русские форсированные (надписи, песня)
Оригинальная аудиодорожка: нет
Режиссер: Джастин Юджин Эванс / Justin Eugene Evans
В ролях: Майкл Сковотти, Росс Маркванд, Майкл Уинкотт, Джеймс Кромуэлл
Описание: 1972 год. Заброшенная мексиканская тюрьма посреди пыльной пустыни. Перебежчик КГБ Николай Дзержинский ожидает звонка из "Вашингтон Пост". Он хранит у себя скандальный компромат на ЦРУ - информацию, с помощью которой он планирует выторговать для себя прибежище в США. Специальный агент Роберт Харпер должен перехватить этот материал и убить Дзержинского, иначе его карьере в ЦРУ - конец. Во время охоты друг на друга двое противников обнаруживают, что это смертельное противостояние было предопределено их прошлым.
Доп. информация: Фильм снят в 2008 году, но до сего времени показывался лишь на кинофестивалях, собрав множество номинаций и наград. Наконец, в 2012 году у фильма появляется прокатчик и он выходит на большой экран. (http://boxofficemojo.com/movies/?id=lonelyplacefordying.htm)

Сэмпл: http://multi-up.com/877148
Качество видео: DVDRip
Формат видео: AVI
Видео: Xvid 720x304 23.98fps 2109Kbps 0.402bits/pixel
Аудио: Dolby AC3 48000Hz stereo 160Kbps
Формат субтитров: softsub (SRT)

MediaInfo

General
Complete name : d:\TORRENTS\ALPFD\Одинокое место для смерти.avi
Format : AVI
Format/Info : Audio Video Interleave
File size : 1.48 GiB
Duration : 1h 33mn
Overall bit rate : 2 279 Kbps
Writing application : VirtualDubMod 1.5.4.1 (build 2178/release)
Writing library : VirtualDubMod build 2178/release
Video
ID : 0
Format : MPEG-4 Visual
Format profile : Advanced Simple@L5
Format settings, BVOP : 2
Format settings, QPel : No
Format settings, GMC : No warppoints
Format settings, Matrix : Default (H.263)
Codec ID : XVID
Codec ID/Hint : XviD
Duration : 1h 33mn
Bit rate : 2 109 Kbps
Width : 720 pixels
Height : 304 pixels
Display aspect ratio : 2.35:1
Frame rate : 23.976 fps
Color space : YUV
Chroma subsampling : 4:2:0
Bit depth : 8 bits
Scan type : Progressive
Compression mode : Lossy
Bits/(Pixel*Frame) : 0.402
Stream size : 1.37 GiB (93%)
Writing library : XviD 64
Audio
ID : 1
Format : AC-3
Format/Info : Audio Coding 3
Mode extension : CM (complete main)
Format settings, Endianness : Big
Codec ID : 2000
Duration : 1h 33mn
Bit rate mode : Constant
Bit rate : 160 Kbps
Channel(s) : 2 channels
Channel positions : Front: L R
Sampling rate : 48.0 KHz
Bit depth : 16 bits
Compression mode : Lossy
Stream size : 107 MiB (7%)
Alignment : Split accross interleaves
Interleave, duration : 42 ms (1.00 video frame)
Interleave, preload duration : 500 ms

Скриншот c названием фильма

-
Показать сообщения:    

Текущее время: Сегодня 01:51

Часовой пояс: GMT



Вы не можете начинать темы
Вы не можете отвечать на сообщения
Вы не можете редактировать свои сообщения
Вы не можете удалять свои сообщения
Вы не можете голосовать в опросах
Вы не можете прикреплять файлы к сообщениям
Вы не можете скачивать файлы