Важное объявление!
У Нас Все раздачи мультитрекерные, при нуле пиров в релизах, можете смело вставать на закачку!
 
Автор Сообщение

HUNTER

Стаж:
4 года 4 месяца
Сообщений:
56734

Репутация: 101

[+] [-]
Вне форума [Профиль] [ЛС]

Одинокое место для смерти / A lonely place for dying
Страна: США
Жанр: шпионский триллер
Год выпуска: 2012
Продолжительность: 01:33:13
Перевод: Одноголосый закадровый А. Кедров
Перевод с английского: А. Кедров (при участии zelesk, mikeOS и Nelly82)
Cубтитры: русские форсированные, полные
Оригинальная аудиодорожка: английский
Режиссер: Джастин Юджин Эванс / Justin Eugene Evans
В ролях: Майкл Сковотти, Росс Маркванд, Майкл Уинкотт, Джеймс Кромуэлл
Описание: 1972 год. Заброшенная мексиканская тюрьма посреди пыльной пустыни. Перебежчик КГБ Николай Дзержинский ожидает звонка из "Вашингтон Пост". Он хранит у себя скандальный компромат на ЦРУ - информацию, с помощью которой он планирует выторговать для себя прибежище в США. Специальный агент Роберт Харпер должен перехватить этот материал и убить Дзержинского, иначе его карьере в ЦРУ - конец. Во время охоты друг на друга двое противников обнаруживают, что это смертельное противостояние было предопределено их прошлым.
Доп. информация: Фильм снят в 2008 году, но до сего времени показывался лишь на кинофестивалях, собрав множество номинаций и наград. Наконец, в 2012 году у фильма появляется прокатчик и он выходит на большой экран. (http://boxofficemojo.com/movies/?id=lonelyplacefordying.htm)

Сэмпл: http://www.sendspace.com/file/hzfetu
Тип релиза: WEB-DL 720p
Контейнер: MKV
Видео: MPEG4 Video (H264) 1280x530 23.98fps 0.253bits/pixel
Аудио 1: Dolby AC3 48000Hz stereo 640kbps [русский]
Аудио 2: Dolby AC3 48000Hz stereo 640kbps [английский]
Формат субтитров: softsub (SRT)

MediaInfo

General
Unique ID : 249376315182534548285385125128261095279 (0xBB9C219BC4E9D2B7AE426E4CEEE84F6F)
Complete name : D:\TORRENTS\A Lonely Place for Dying.Rus.mkv
Format : Matroska
Format version : Version 2
File size : 3.58 GiB
Duration : 1h 33mn
Overall bit rate : 5 492 Kbps
Encoded date : UTC 2013-09-15 10:18:46
Writing application : mkvmerge v4.0.0 ('The Stars were mine') built on Jun 6 2010 16:18:42
Writing library : libebml v1.0.0 + libmatroska v1.0.0
Video
ID : 1
Format : AVC
Format/Info : Advanced Video Codec
Format profile : Main@L3.1
Format settings, CABAC : No
Format settings, ReFrames : 2 frames
Codec ID : V_MPEG4/ISO/AVC
Duration : 1h 33mn
Bit rate : 4 103 Kbps
Width : 1 280 pixels
Height : 530 pixels
Display aspect ratio : 2.40:1
Frame rate mode : Constant
Frame rate : 23.976 fps
Color space : YUV
Chroma subsampling : 4:2:0
Bit depth : 8 bits
Scan type : Progressive
Bits/(Pixel*Frame) : 0.252
Stream size : 2.67 GiB (75%)
Language : English
Default : No
Forced : No
Color primaries : BT.709
Transfer characteristics : BT.709
Matrix coefficients : BT.709
Audio #1
ID : 2
Format : AC-3
Format/Info : Audio Coding 3
Mode extension : CM (complete main)
Format settings, Endianness : Big
Codec ID : A_AC3
Duration : 1h 33mn
Bit rate mode : Constant
Bit rate : 640 Kbps
Channel(s) : 2 channels
Channel positions : Front: L R
Sampling rate : 48.0 KHz
Bit depth : 16 bits
Compression mode : Lossy
Stream size : 427 MiB (12%)
Title : A.Kedrov
Language : Russian
Default : Yes
Forced : Yes
Audio #2
ID : 3
Format : AC-3
Format/Info : Audio Coding 3
Mode extension : CM (complete main)
Format settings, Endianness : Big
Codec ID : A_AC3
Duration : 1h 33mn
Bit rate mode : Constant
Bit rate : 640 Kbps
Channel(s) : 2 channels
Channel positions : Front: L R
Sampling rate : 48.0 KHz
Bit depth : 16 bits
Compression mode : Lossy
Stream size : 427 MiB (12%)
Title : Original
Language : English
Default : No
Forced : No
Text #1
ID : 4
Format : UTF-8
Codec ID : S_TEXT/UTF8
Codec ID/Info : UTF-8 Plain Text
Title : force subs
Language : Russian
Default : Yes
Forced : Yes
Text #2
ID : 5
Format : UTF-8
Codec ID : S_TEXT/UTF8
Codec ID/Info : UTF-8 Plain Text
Title : Full subs
Language : Russian
Default : No
Forced : No

Скриншоты


_________________
Показать сообщения:    

Текущее время: Сегодня 15:23

Часовой пояс: GMT



Вы не можете начинать темы
Вы не можете отвечать на сообщения
Вы не можете редактировать свои сообщения
Вы не можете удалять свои сообщения
Вы не можете голосовать в опросах
Вы не можете прикреплять файлы к сообщениям
Вы не можете скачивать файлы