Важное объявление!
У Нас Все раздачи мультитрекерные, при нуле пиров в релизах, можете смело вставать на закачку!
 
Автор Сообщение

HUNTER

Стаж:
4 года 4 месяца
Сообщений:
56853

Репутация: 101

[+] [-]
Вне форума [Профиль] [ЛС]

Одинокий рейнджер / The Lone Ranger
Производство: США, Blind Wink Productions, Classic Media, Infinitum Nihil Production, Jerry Bruckheimer Films
Жанр: боевик, приключения, комедия, вестерн
Год выпуска: 2013
Продолжительность: 02:29:33
Перевод 1: Профессиональный (дублированный) [Blu-ray]
Перевод 2: Авторский (одноголосый закадровый) [Ю. Сербин]
Перевод 3: Авторский (одноголосый закадровый) [Л. Володарский]
Оригинальная аудиодорожка: английская
Cубтитры: русские (Forced, Full), английские (Forced, Full, SDH)
Режиссер: Гор Вербински / Gore Verbinski
В ролях: Джонни Депп, Эрми Хаммер, Хелена Бонэм Картер, Уильям Фихтнер, Барри Пеппер, Том Уилкинсон, Джеймс Бадж Дейл, Джеймс Фрейн, Рут Уилсон, Дэймон Херримэн, Тимоти В. Мерфи, Сэгинав Грант,
Описание: История блюстителя закона Джона Рида, который с помощью индейца Тонто стал легендарным мстителем в маске, стоящим на защите справедливости. Тонто с юмором и небылицами повествует о тех приключениях, которые пришлось пережить двум непохожим друг на друга героям, сведенным судьбой для того, чтобы вместе сражаться против общего врага. Им приходится противостоять жадности и коррупции во времена, когда появление первых железных дорог изменило представление о власти и могуществе в мире.

Релиз: fanatus
Качество видео: BDRip 1080p
Исходник: BDRemux 1080p
Контейнер: MKV
Видео: MPEG-4 AVC, 14.0 Mbps , 1920x800 (2.40:1), 23.976 fps, 0.380 bit/pixel
Аудио 1: русский (AC3, 6 ch, 48 kHz, 640 kbps) Dub (Blu-ray)
Аудио 2: русский (DTS, 6 ch, 48 kHz, 1510 kbps) AVO (Y. Serbin)
Аудио 3: русский (DTS, 6 ch, 48 kHz, 1510 kbps) AVO (L. Volodarskij)
Аудио 4: английский (DTS, 6 ch, 48 kHz, 1510 kbps) Original
Формат субтитров: softsub (SRT)
Главы: есть
MediaInfo
General
Unique ID : 212460214051229374791274016051499906225 (0x9FD6594C7A7B4AB18C1AF20FD52434B1)
Complete name : F:\The_Lone_Ranger.2013.x264.BDRip.1080p.fanatus.mkv
Format : Matroska
Format version : Version 2
File size : 20.0 GiB
Duration : 2h 29mn
Overall bit rate : 19.2 Mbps
Movie name : The Lone Ranger (2013) - fanatus
Encoded date : UTC 2014-04-24 17:21:48
Writing application : mkvmerge v3.4.0 ('Rapunzel') сборка от May 15 2010 09:38:20
Writing library : libebml v0.8.0 + libmatroska v0.9.0
Video
ID : 1
Format : AVC
Format/Info : Advanced Video Codec
Format profile : High@L4.1
Format settings, CABAC : Yes
Format settings, ReFrames : 5 frames
Codec ID : V_MPEG4/ISO/AVC
Duration : 2h 29mn
Bit rate : 14.0 Mbps
Width : 1 920 pixels
Height : 800 pixels
Display aspect ratio : 2.40:1
Frame rate : 23.976 fps
Color space : YUV
Chroma subsampling : 4:2:0
Bit depth : 8 bits
Scan type : Progressive
Bits/(Pixel*Frame) : 0.380
Stream size : 14.2 GiB (71%)
Title : The Lone Ranger (2013) BDRip 1080p
Writing library : x264 core 138 r2358kMod 9e941d1
Encoding settings : cabac=1 / ref=5 / deblock=1:-3:-3 / analyse=0x3:0x113 / me=tesa / subme=11 / psy=1 / fade_compensate=0.00 / psy_rd=1.20:0.00 / mixed_ref=1 / me_range=48 / chroma_me=1 / trellis=2 / 8x8dct=1 / cqm=0 / deadzone=21,11 / fast_pskip=0 / chroma_qp_offset=-2 / threads=16 / lookahead_threads=2 / sliced_threads=0 / nr=0 / decimate=0 / interlaced=0 / bluray_compat=0 / constrained_intra=0 / bframes=8 / b_pyramid=2 / b_adapt=2 / b_bias=0 / direct=3 / weightb=1 / open_gop=0 / weightp=2 / keyint=240 / keyint_min=23 / scenecut=40 / intra_refresh=0 / rc_lookahead=240 / rc=2pass / mbtree=0 / bitrate=14000 / ratetol=1.0 / qcomp=0.70 / qpmin=0 / qpmax=69 / qpstep=4 / cplxblur=20.0 / qblur=0.5 / vbv_maxrate=50000 / vbv_bufsize=62500 / nal_hrd=none / ip_ratio=1.30 / pb_ratio=1.20 / aq=3:0.90
Language : English
Default : Yes
Forced : No
Audio #1
ID : 2
Format : AC-3
Format/Info : Audio Coding 3
Mode extension : CM (complete main)
Format settings, Endianness : Big
Codec ID : A_AC3
Duration : 2h 29mn
Bit rate mode : Constant
Bit rate : 640 Kbps
Channel(s) : 6 channels
Channel positions : Front: L C R, Side: L R, LFE
Sampling rate : 48.0 KHz
Bit depth : 16 bits
Compression mode : Lossy
Stream size : 685 MiB (3%)
Title : Dub
Language : Russian
Default : Yes
Forced : No
Audio #2
ID : 3
Format : DTS
Format/Info : Digital Theater Systems
Codec ID : A_DTS
Duration : 2h 29mn
Bit rate mode : Constant
Bit rate : 1 510 Kbps
Channel(s) : 6 channels
Channel positions : Front: L C R, Side: L R, LFE
Sampling rate : 48.0 KHz
Bit depth : 24 bits
Compression mode : Lossy
Stream size : 1.58 GiB (8%)
Title : AVO (Serbin)
Language : Russian
Default : No
Forced : No
Audio #3
ID : 4
Format : DTS
Format/Info : Digital Theater Systems
Codec ID : A_DTS
Duration : 2h 29mn
Bit rate mode : Constant
Bit rate : 1 510 Kbps
Channel(s) : 6 channels
Channel positions : Front: L C R, Side: L R, LFE
Sampling rate : 48.0 KHz
Bit depth : 24 bits
Compression mode : Lossy
Stream size : 1.58 GiB (8%)
Title : AVO (Volodarskij)
Language : Russian
Default : No
Forced : No
Audio #4
ID : 5
Format : DTS
Format/Info : Digital Theater Systems
Codec ID : A_DTS
Duration : 2h 29mn
Bit rate mode : Constant
Bit rate : 1 510 Kbps
Channel(s) : 6 channels
Channel positions : Front: L C R, Side: L R, LFE
Sampling rate : 48.0 KHz
Bit depth : 24 bits
Compression mode : Lossy
Stream size : 1.58 GiB (8%)
Title : Original
Language : English
Default : No
Forced : No
Text #1
ID : 6
Format : UTF-8
Codec ID : S_TEXT/UTF8
Codec ID/Info : UTF-8 Plain Text
Title : Forced
Language : Russian
Default : Yes
Forced : Yes
Text #2
ID : 7
Format : UTF-8
Codec ID : S_TEXT/UTF8
Codec ID/Info : UTF-8 Plain Text
Title : Full
Language : Russian
Default : No
Forced : No
Text #3
ID : 8
Format : UTF-8
Codec ID : S_TEXT/UTF8
Codec ID/Info : UTF-8 Plain Text
Title : Forced
Language : English
Default : No
Forced : No
Text #4
ID : 9
Format : UTF-8
Codec ID : S_TEXT/UTF8
Codec ID/Info : UTF-8 Plain Text
Title : Full
Language : English
Default : No
Forced : No
Text #5
ID : 10
Format : UTF-8
Codec ID : S_TEXT/UTF8
Codec ID/Info : UTF-8 Plain Text
Title : SDH
Language : English
Default : No
Forced : No
Menu
00:00:00.000 : en:Tonto's Story
00:08:16.120 : en:The Train
00:13:38.776 : en:The Great Escape
00:24:51.406 : en:Rebecca
00:29:03.032 : en:The Forces of Evil
00:32:05.840 : en:The Manhunt
00:40:32.012 : en:Trading with the Dead
00:45:29.643 : en:Unbalanced
00:53:29.664 : en:Red's
01:01:05.662 : en:The Natives Are Coming
01:10:01.614 : en:The Valley of Tears
01:16:12.317 : en:Tonto's Past
01:24:45.455 : en:Trapped
01:28:39.731 : en:At the River's Start
01:35:35.187 : en:All Could Be Yours
01:41:13.984 : en:Deceit
01:46:35.806 : en:The Mine
01:50:02.178 : en:The Natives Attack
01:53:55.203 : en:I'd Rather Be an Outlaw
01:56:15.259 : en:The Railroad Is Finished
02:01:51.095 : en:This Is a Train Robbery
02:12:07.210 : en:Bad Trade
02:17:13.934 : en:Allies
02:20:20.286 : en:End Credits
x264 [info]
x264 [info]: 1920x800p 1:1 @ 24000/1001 fps (cfr)
x264 [info]: frame I:2085 Avg QP:14.34 size:226406
x264 [info]: frame P:57144 Avg QP:16.53 size:108092
x264 [info]: frame B:155908 Avg QP:17.33 size: 58070
x264 [info]: consecutive B-frames: 4.5% 5.3% 19.8% 20.9% 16.4% 27.6% 3.2% 0.9% 1.4%
x264 [info]: mb I I16..4: 22.0% 56.4% 21.6%
x264 [info]: mb P I16..4: 9.4% 19.2% 4.5% P16..4: 24.7% 28.8% 11.2% 0.0% 0.0% skip: 2.2%
x264 [info]: mb B I16..4: 6.0% 4.0% 1.4% B16..8: 32.2% 21.0% 4.6% direct:12.8% skip:18.0% L0:39.0% L1:39.7% BI:21.3%
x264 [info]: 8x8 transform intra:47.3% inter:37.1%
x264 [info]: direct mvs spatial:98.7% temporal:1.3%
x264 [info]: coded y,uvDC,uvAC intra: 94.9% 67.1% 38.9% inter: 50.2% 26.5% 7.9%
x264 [info]: i16 v,h,dc,p: 6% 6% 42% 46%
x264 [info]: i8 v,h,dc,ddl,ddr,vr,hd,vl,hu: 10% 10% 15% 8% 10% 10% 11% 11% 13%
x264 [info]: i4 v,h,dc,ddl,ddr,vr,hd,vl,hu: 13% 10% 28% 6% 8% 8% 8% 7% 10%
x264 [info]: i8c dc,h,v,p: 32% 38% 20% 10%
x264 [info]: Weighted P-Frames: Y:3.9% UV:2.1%
x264 [info]: ref P L0: 50.9% 11.8% 21.2% 7.3% 6.9% 2.0% 0.0%
x264 [info]: ref B L0: 78.5% 16.1% 4.1% 1.3%
x264 [info]: ref B L1: 92.6% 7.4%
x264 [info]: kb/s:13999.79
x264 [info]: encoded 215137 frames, 1.08 fps, 13999.79 kb/s, duration 55:06:26.66
Скриншот c названием фильмаСкриншотыSource vs Rip

_________________
Показать сообщения:    

Текущее время: Сегодня 12:04

Часовой пояс: GMT



Вы не можете начинать темы
Вы не можете отвечать на сообщения
Вы не можете редактировать свои сообщения
Вы не можете удалять свои сообщения
Вы не можете голосовать в опросах
Вы не можете прикреплять файлы к сообщениям
Вы не можете скачивать файлы
Наши партнеры: интернет магазин Ивановского трикотажа textilla.ru