Важное объявление!
У Нас Все раздачи мультитрекерные, при нуле пиров в релизах, можете смело вставать на закачку!
 
Автор Сообщение

HUNTER

Стаж:
4 года 4 месяца
Сообщений:
56790

Репутация: 101

[+] [-]
Вне форума [Профиль] [ЛС]

ОДИН ШАНС / ONE CHANCE
Страна: Великобритания, США
Студия: The Weinstein Company
Жанр: Комедии
Год выпуска: 2013
Продолжительность: 01:35:00
Перевод: Профессиональный (многоголосый закадровый)
Cубтитры: русские
Оригинальная аудиодорожка: английский
Режиссер: Дэвид Фрэнкел / David Frankel
В ролях: Джеймс Корден, Джули Уолтерс, Александра Роуч, Колм Мини, Макензи Крук, Валерия Билелло, Тристан Гравель, Сион Тудор Оуэн, Джемайма Рупер, Александр Макквин
Описание: У каждого в жизни была минута славы. Или обязательно будет. Даже если тебе уже тридцать семь, от природы ты не красавец, работаешь в заштатном магазине сотовых телефонов, живешь на чердаке у родителей, а хочется тебе лишь одного — петь на оперной сцене. Сорокалетний продавец, живущий с родителями, мечтает стать известным оперным певцом. И единственный шанс для него – это национальный конкурс талантов. Подлинная история успеха от режиссера «Дьявол носит Prada».
Настоящие песни прообраза героя фильма: http://rutracker.org/forum/viewtopic.php?t=4588683, http://rutracker.org/forum/viewtopic.php?t=3102559
Сэмпл: http://multi-up.com/1010913
Тип релиза: HDTV 1080i
Контейнер: TS
Видео: AVC, 1920х1080, 16:9, 6704 Кбит/сек, 25 fps
Аудио: (русский) MPEG Audio, 192 Кбит/сек, 48 КГц, 2 канала
Аудио 2: (английский) MPEG Audio, 192 Кбит/сек, 48 КГц, 2 канала
Формат субтитров: Teletext Sub Page 888

MediaInfo

Общее
Идентификатор : 16 (0x10)
Полное имя : ONE CHANCE_HD.ts
Формат : MPEG-TS
Размер файла : 5,00 Гбайт
Продолжительность : 1 ч. 35 м.
Режим общего битрейта : Переменный
Общий поток : 7461 Кбит/сек
Видео
Идентификатор : 1812 (0x714)
Идентификатор меню : 812 (0x32C)
Формат : AVC
Формат/Информация : Advanced Video Codec
Профиль формата : High@L4.0
Параметр CABAC формата : Да
Параметр ReFrames формата : 4 кадра
Идентификатор кодека : 27
Продолжительность : 1 ч. 35 м.
Битрейт : 6704 Кбит/сек
Ширина : 1920 пикселей
Высота : 1080 пикселей
Соотношение сторон : 16:9
Частота кадров : 25,000 кадров/сек
Стандарт вещания : PAL
Цветовое пространство : YUV
Субдискретизация насыщенности : 4:2:0
Битовая глубина : 8 бит
Тип развёртки : MBAFF
Бит/(Пиксели*Кадры) : 0.129
Размер потока : 4,49 Гбайт (90%)
Основные цвета : BT.709
Характеристики трансфера : BT.709
Коэффициенты матрицы : BT.709
Аудио #1
Идентификатор : 2812 (0xAFC)
Идентификатор меню : 812 (0x32C)
Формат : MPEG Audio
Версия формата : Version 1
Профиль формата : Layer 2
Режим : Joint stereo
Расширение режима : Intensity Stereo + MS Stereo
Идентификатор кодека : 4
Продолжительность : 1 ч. 35 м.
Вид битрейта : Постоянный
Битрейт : 192 Кбит/сек
Каналы : 2 канала
Частота : 48,0 КГц
Метод сжатия : С потерями
Задержка видео : 241 мс.
Размер потока : 132 Мбайт (3%)
Язык : std
Язык, дополнительно : Clean effects
Аудио #2
Идентификатор : 3812 (0xEE4)
Идентификатор меню : 812 (0x32C)
Формат : MPEG Audio
Версия формата : Version 1
Профиль формата : Layer 2
Режим : Joint stereo
Расширение режима : Intensity Stereo + MS Stereo
Идентификатор кодека : 4
Продолжительность : 1 ч. 35 м.
Вид битрейта : Постоянный
Битрейт : 192 Кбит/сек
Каналы : 2 канала
Частота : 48,0 КГц
Метод сжатия : С потерями
Задержка видео : 241 мс.
Размер потока : 132 Мбайт (3%)
Язык : English
Язык, дополнительно : Clean effects
Текст
Идентификатор : 63 (0x3F)-100
Идентификатор меню : 812 (0x32C)
Формат : Teletext
Меню
Идентификатор : 812 (0x32C)
Идентификатор меню : 812 (0x32C)
Продолжительность : 1 ч. 35 м.
Список : 1812 (0x714) (AVC) / 2812 (0xAFC) (MPEG Audio, std) / 3812 (0xEE4) (MPEG Audio, English) / 63 (0x3F) ()
Язык : / std / English

Скриншоты


_________________
Показать сообщения:    

Текущее время: Сегодня 12:44

Часовой пояс: GMT



Вы не можете начинать темы
Вы не можете отвечать на сообщения
Вы не можете редактировать свои сообщения
Вы не можете удалять свои сообщения
Вы не можете голосовать в опросах
Вы не можете прикреплять файлы к сообщениям
Вы не можете скачивать файлы