Важное объявление!
У Нас Все раздачи мультитрекерные, при нуле пиров в релизах, можете смело вставать на закачку!
 
Автор Сообщение

HUNTER

Стаж:
4 года 4 месяца
Сообщений:
56755

Репутация: 101

[+] [-]
Вне форума [Профиль] [ЛС]

Один раз в жизни / Once in the Life
Страна: США
Студия: Cinema Gypsy Productions, Shooting Gallery
Жанр: драма, криминал
Год выпуска: 2000
Продолжительность: 01:49:03
Перевод: Профессиональный (двухголосый закадровый)
Cубтитры: русские, английские
Оригинальная аудиодорожка: английский
Режиссер: Лоренс Фишберн / Laurence Fishburne
В ролях: Лоуренс Фишберн, Имонн Уолкер, Грегори Хайнс, Ник Чинланд, Доминик Чианиз мл., Пол Калдерон, Титус Уэлливер, Хэрш Нэйэр, Ванда Де Хесус, Джастин Пьер Эдмунд, Джим Брюэр, Аннабелла Шиорра, Сью Костильо и др.
Описание: Два брата, которые давно не видели друг друга, встречаются в тюрьме. Один из них придумывает схему, по которой они смогут ограбить молодых наркокурьеров. Грабеж срывается, когда брат наркомана начинает отстреливаться...
II Сэмпл II IMDB II
Доп. информация:
За двухголосый перевод спасибо v_l_l
Тип релиза: WEB-DL 720p
Контейнер: MKV
Видео: AVC / 1280x718 / 16:9 / 23.976fps / Bit rate 4047Kbps
Аудио 1: AC3 / 48.0 KHz / 6ch. / 384kbps / rus / dvo
Аудио 2: AC3 / 48.0 KHz / 6ch. / 384kbps / eng
Формат субтитров: softsub (SRT)

MediaInfo

Общее
Уникальный идентификатор : 236880317221317710910838752470433991639 (0xB2357D578E5518389501E557E8EB0BD7)
Полное имя : G:\!!!_torrent\Once.In.the.Life.2000.WEB-DL.720p_by_vedigo.mkv
Формат : Matroska
Версия формата : Version 4 / Version 2
Размер файла : 3,74 Гбайт
Продолжительность : 1 ч. 49 м.
Общий поток : 4913 Кбит/сек
Название фильма : Once.In.the.Life.2000.WEB-DL.720p_by_vedigo
Дата кодирования : UTC 2015-10-28 06:34:27
Программа кодирования : mkvmerge v8.5.0 ('Vanishing Act') 64bit
Библиотека кодирования : libebml v1.3.1 + libmatroska v1.4.2
DURATION : 01:48:12.752000000
NUMBER_OF_FRAMES : 2532
NUMBER_OF_BYTES : 70411
_STATISTICS_WRITING_APP : mkvmerge v8.5.0 ('Vanishing Act') 64bit
_STATISTICS_WRITING_DATE_UTC : 2015-10-28 06:34:27
_STATISTICS_TAGS : BPS DURATION NUMBER_OF_FRAMES NUMBER_OF_BYTES
Видео
Идентификатор : 1
Формат : AVC
Формат/Информация : Advanced Video Codec
Профиль формата : High@L3.1
Параметр CABAC формата : Нет
Параметр ReFrames формата : 2 кадра
Идентификатор кодека : V_MPEG4/ISO/AVC
Продолжительность : 1 ч. 49 м.
Битрейт : 4047 Кбит/сек
Ширина : 1280 пикселей
Высота : 718 пикселей
Соотношение сторон : 16:9
Режим частоты кадров : Постоянный
Частота кадров : 23,976 кадра/сек
Цветовое пространство : YUV
Субдискретизация насыщенности : 4:2:0
Битовая глубина : 8 бит
Тип развёртки : Прогрессивная
Бит/(Пиксели*Кадры) : 0.184
Размер потока : 3,08 Гбайт (82%)
Заголовок : Once.In.the.Life.2000.WEB-DL.720p_by_vedigo
Default : Да
Forced : Нет
Цветовой диапазон : Limited
Основные цвета : BT.709
Характеристики трансфера : BT.709
Коэффициенты матрицы : BT.709
Аудио #1
Идентификатор : 2
Формат : AC-3
Формат/Информация : Audio Coding 3
Расширение режима : CM (complete main)
Параметр Endianness формата : Big
Идентификатор кодека : A_AC3
Продолжительность : 1 ч. 49 м.
Вид битрейта : Постоянный
Битрейт : 384 Кбит/сек
Каналы : 6 каналов
Расположение каналов : Front: L C R, Side: L R, LFE
Частота : 48,0 КГц
Метод сжатия : С потерями
Размер потока : 300 Мбайт (8%)
Заголовок : DVO
Язык : Russian
Default : Да
Forced : Нет
Аудио #2
Идентификатор : 3
Формат : AC-3
Формат/Информация : Audio Coding 3
Расширение режима : CM (complete main)
Параметр Endianness формата : Big
Идентификатор кодека : A_AC3
Продолжительность : 1 ч. 49 м.
Вид битрейта : Постоянный
Битрейт : 384 Кбит/сек
Каналы : 6 каналов
Расположение каналов : Front: L C R, Side: L R, LFE
Частота : 48,0 КГц
Метод сжатия : С потерями
Размер потока : 300 Мбайт (8%)
Заголовок : original
Язык : English
Default : Нет
Forced : Нет
Текст #1
Идентификатор : 4
Формат : UTF-8
Идентификатор кодека : S_TEXT/UTF8
Идентификатор кодека/Информация : UTF-8 Plain Text
Заголовок : subtitle rus
Язык : Russian
Default : Нет
Forced : Нет
Текст #2
Идентификатор : 5
Формат : UTF-8
Идентификатор кодека : S_TEXT/UTF8
Идентификатор кодека/Информация : UTF-8 Plain Text
Заголовок : subtitle eng
Язык : English
Default : Нет
Forced : Нет
Меню
00:00:00.000 : en:Chapter 1
00:04:23.000 : en:Chapter 2
00:13:36.000 : en:Chapter 3
00:19:50.000 : en:Chapter 4
00:27:48.000 : en:Chapter 5
00:37:44.000 : en:Chapter 6
00:47:40.000 : en:Chapter 7
00:54:50.000 : en:Chapter 8
01:01:18.000 : en:Chapter 9
01:10:33.000 : en:Chapter 10
01:16:52.000 : en:Chapter 11
01:26:43.000 : en:Chapter 12
01:33:33.000 : en:Chapter 13
01:45:06.000 : en:Chapter 14

Скриншоты



_________________
Показать сообщения:    

Текущее время: Сегодня 14:57

Часовой пояс: GMT



Вы не можете начинать темы
Вы не можете отвечать на сообщения
Вы не можете редактировать свои сообщения
Вы не можете удалять свои сообщения
Вы не можете голосовать в опросах
Вы не можете прикреплять файлы к сообщениям
Вы не можете скачивать файлы