Важное объявление!
У Нас Все раздачи мультитрекерные, при нуле пиров в релизах, можете смело вставать на закачку!
 
Автор Сообщение

HUNTER

Стаж:
4 года 4 месяца
Сообщений:
56822

Репутация: 101

[+] [-]
Вне форума [Профиль] [ЛС]

Один в темноте / Alone in the Dark
«Они ждали тысячелетия...»
-
Страна: Канада, Германия, США
Студии: AITD Productions, Boll Kino Beteiligungs GmbH & Co. KG, Brightlight Pictures Inc., Herold Productions, Infogrames Entertainment
Жанр: ужасы, фэнтези, боевик, триллер
Год выпуска: 2005
Продолжительность: 01:39:46
Перевод:
  • Профессиональный (дублированный) (R5)
  • Профессиональный (многоголосый, закадровый) R5
  • Профессиональный (двухголосый, закадровый) Tycoon
  • Авторский (одноголосый закадровый) А.Карповский
Cубтитры: русские (Forced, Full), английские, немецкие
Оригинальная аудиодорожка: английский-
Внимание: Версии с ДВД и/или другие озвучки имеют R-Rated версию (и/или отличия), на Blu-Ray'е - Unrated.
Русские дорожки содержат в различных местах - места без перевода (~ 30 фраз, переведены субтитрами (включены по умолчанию)).-Режиссер: Уве Болл / Uwe Boll
В ролях: Кристиан Слэйтер (Christian Slater), Тара Рид (Tara Reid), Стивен Дорфф (Stephen Dorff), Фрэнк Ч. Тёрнер (Frank C. Turner), Мэттью Уолкер (Matthew Walker), Уилл Сэндерсон (Will Sanderson), Марк Эчесон (Mark Acheson), Даррен Шахлави (Darren Shahlavi), Карин Коновал (Karin Konoval)-Описание: Частный детектив Эдвард Карнби — специалист по паранормальным явлениям, пытаясь найти истинную причину смерти своего друга, сталкивается со множеством необъяснимых загадок. Расследование приводит детектива на «Остров Теней», где Карнби оказывается перед лицом смертельной опасности, грозящей не только ему, но и всему миру.
Демоны тьмы жаждут власти над миром. Один Карнби бессилен против нечисти. И тогда к детективу присоединяется его бывшая возлюбленная Эйлин, гениальный учёный-антрополог с фантастической памятью, очаровательное юное создание.
Но главная опасность впереди — встреча с коварной царицей, злым духом, способным незаметно подчинить себе душу и тело любого смертного.
- -Тип релиза: BDRemux 1080p
Исходник: Alone in the Dark Director's Cut 2005 1080p Blu-Ray VC-1 DTS-DON
Источник: Usenet
Контейнер: MKV
Видео: VC-1 Video / 19957 kbps / 1080p / 23,976 fps / 16:9 / Advanced Profile 3
Аудио #1: Russian: 48 kHz, AC3, 3/2 (L,C,R,l,r) + LFE ch, ~384.00 kbps avg - [Dub, R5]
Аудио #2: Russian: 48 kHz, AC3, 3/2 (L,C,R,l,r) + LFE ch, ~448.00 kbps avg - [MVO, R5]
Аудио #3: Russian: 48 kHz, AC3, 2/0 (L,R), ~192.00 kbps avg - [DVO, Tycoon]
Аудио #4: Russian: 48 kHz, AC3, 2/0 (L,R), ~192.00 kbps avg - [AVO, А.Карповский]
Аудио #5: English:  48 kHz, DTS, 3/2 (L,C,R,l,r) + LFE ch, ~1509.00 kbps avg - [Original]
Формат субтитров: softsub (SRT)
Чаптеры: Сохранены оригинальные чаптеры с Blu-Ray
-
Цитата:

  • Релиз доступен благодаря проекту GORESEWAGE!

-

Дополнительно

  • Версии с ДВД и/или другие озвучки имеют R-Rated версию (и/или отличия), на Blu-Ray'е - Unrated (была замечена дорога со вставками, с одной из раздач, но с разным содержанием видеоряда). Всё переделано с нуля. Первые 2 дороги с ДВД (9 и 5). Для синхронизации во все дороги использовались вставки из оригинала.
    ► Семпл на одну из вставок присутствует. ◄

  • Разница версий тут - http://www.movie-censorship.com/report.php?ID=2492 (имеющиеся там на скринах сабы на немецком намекают, что английских на расширенные места нет и не было).
  • На места без перевода были созданы форсированные сабы. Написание сабов на английском и перевод на русский (на слух с оригинала) lakdhf.
  • За пробный перевод сабов с немецкого, спасибо Lathros.
  • Полные английские и русские сабы, взятые из сети, были допилены дописаны и подогнаны под этот трансфер, + вставки как в форсированных сабах.
  • За предоставленную дорогу Тайкун спасибо Vouka.
  • 5.1 дорога Тайкуна оказалась дутой - голос во фронтах. Учитывая этот недостаток, была сдаунмиксена и пережата в стерео 192.
  • В центральном канале дороги с MVO R5 была удавлена наводка на 15.7 кГц.
  • Оригинал дорога на блюре только 1509 : (((
-

Скриншоты


-

MediaInfo

Код:
Format                                   : Matroska
Format version                           : Version 2
File size                                : 15.8 GiB
Duration                                 : 1h 39mn
Overall bit rate                         : 22.7 Mbps
Movie name                               : Arifis / GORESEWAGE
Encoded date                             : UTC 2014-03-16 12:27:45
Writing application                      : mkvmerge v5.2.1 ('A Far Off Place') built on Jan  2 2012 23:21:10
Writing library                          : libebml v1.2.3 + libmatroska v1.3.0
Video
ID                                       : 1
Format                                   : VC-1
Format profile                           : Advanced@L3
Codec ID                                 : V_MS/VFW/FOURCC / WVC1
Codec ID/Hint                            : Microsoft
Duration                                 : 1h 39mn
Bit rate                                 : 19.5 Mbps
Width                                    : 1 920 pixels
Height                                   : 1 080 pixels
Display aspect ratio                     : 16:9
Frame rate mode                          : Constant
Frame rate                               : 23.976 fps
Chroma subsampling                       : 4:2:0
Bit depth                                : 8 bits
Scan type                                : Progressive
Compression mode                         : Lossy
Bits/(Pixel*Frame)                       : 0.392
Stream size                              : 13.6 GiB (86%)
Title                                    : Alone in the Dark (Arifis / GORESEWAGE)
Default                                  : Yes
Forced                                   : No
Audio #1
ID                                       : 2
Format                                   : AC-3
Format/Info                              : Audio Coding 3
Mode extension                           : CM (complete main)
Format settings, Endianness              : Big
Codec ID                                 : A_AC3
Duration                                 : 1h 39mn
Bit rate mode                            : Constant
Bit rate                                 : 384 Kbps
Channel(s)                               : 6 channels
Channel positions                        : Front: L C R, Side: L R, LFE
Sampling rate                            : 48.0 KHz
Bit depth                                : 16 bits
Compression mode                         : Lossy
Stream size                              : 274 MiB (2%)
Title                                    : AC3 5.1 @ 384 kbps - Dub, R5
Language                                 : Russian
Default                                  : Yes
Forced                                   : No
Audio #2
ID                                       : 3
Format                                   : AC-3
Format/Info                              : Audio Coding 3
Mode extension                           : CM (complete main)
Format settings, Endianness              : Big
Codec ID                                 : A_AC3
Duration                                 : 1h 39mn
Bit rate mode                            : Constant
Bit rate                                 : 448 Kbps
Channel(s)                               : 6 channels
Channel positions                        : Front: L C R, Side: L R, LFE
Sampling rate                            : 48.0 KHz
Bit depth                                : 16 bits
Compression mode                         : Lossy
Stream size                              : 320 MiB (2%)
Title                                    : AC3 5.1 @ 448 kbps - MVO, R5
Language                                 : Russian
Default                                  : No
Forced                                   : No
Audio #3
ID                                       : 4
Format                                   : AC-3
Format/Info                              : Audio Coding 3
Mode extension                           : CM (complete main)
Format settings, Endianness              : Big
Codec ID                                 : A_AC3
Duration                                 : 1h 39mn
Bit rate mode                            : Constant
Bit rate                                 : 192 Kbps
Channel(s)                               : 2 channels
Channel positions                        : Front: L R
Sampling rate                            : 48.0 KHz
Bit depth                                : 16 bits
Compression mode                         : Lossy
Stream size                              : 137 MiB (1%)
Title                                    : АС3 2.0 @ 192 kbps - DVO, Tycoon
Language                                 : Russian
Default                                  : No
Forced                                   : No
Audio #4
ID                                       : 5
Format                                   : AC-3
Format/Info                              : Audio Coding 3
Mode extension                           : CM (complete main)
Format settings, Endianness              : Big
Codec ID                                 : A_AC3
Duration                                 : 1h 39mn
Bit rate mode                            : Constant
Bit rate                                 : 192 Kbps
Channel(s)                               : 2 channels
Channel positions                        : Front: L R
Sampling rate                            : 48.0 KHz
Bit depth                                : 16 bits
Compression mode                         : Lossy
Stream size                              : 137 MiB (1%)
Title                                    : АС3 2.0 @ 192 kbps - AVO, А.Карповский
Language                                 : Russian
Default                                  : No
Forced                                   : No
Audio #5
ID                                       : 6
Format                                   : DTS
Format/Info                              : Digital Theater Systems
Mode                                     : 16
Format settings, Endianness              : Big
Codec ID                                 : A_DTS
Duration                                 : 1h 39mn
Bit rate mode                            : Constant
Bit rate                                 : 1 509 Kbps
Channel(s)                               : 6 channels
Channel positions                        : Front: L C R, Side: L R, LFE
Sampling rate                            : 48.0 KHz
Bit depth                                : 16 bits
Compression mode                         : Lossy
Stream size                              : 1.05 GiB (7%)
Title                                    : DTS 5.1 @ 1509 kbps - Original Eng
Language                                 : English
Default                                  : No
Forced                                   : No
Text #1
ID                                       : 7
Format                                   : UTF-8
Codec ID                                 : S_TEXT/UTF8
Codec ID/Info                            : UTF-8 Plain Text
Title                                    : Forced Rus
Language                                 : Russian
Default                                  : Yes
Forced                                   : No
Text #2
ID                                       : 8
Format                                   : UTF-8
Codec ID                                 : S_TEXT/UTF8
Codec ID/Info                            : UTF-8 Plain Text
Title                                    : Full Rus
Language                                 : Russian
Default                                  : No
Forced                                   : No
Text #3
ID                                       : 9
Format                                   : UTF-8
Codec ID                                 : S_TEXT/UTF8
Codec ID/Info                            : UTF-8 Plain Text
Title                                    : Full Eng
Language                                 : English
Default                                  : No
Forced                                   : No
Text #4
ID                                       : 10
Format                                   : UTF-8
Codec ID                                 : S_TEXT/UTF8
Codec ID/Info                            : UTF-8 Plain Text
Title                                    : Full Ger
Language                                 : German
Default                                  : No
Forced                                   : No
Menu
00:00:00.000                             : :Chapter 01
00:04:13.962                             : :Chapter 02
00:12:23.492                             : :Chapter 03
00:21:51.643                             : :Chapter 04
00:28:20.115                             : :Chapter 05
00:34:52.090                             : :Chapter 06
00:42:40.975                             : :Chapter 07
00:48:04.631                             : :Chapter 08
00:56:00.690                             : :Chapter 09
01:03:37.313                             : :Chapter 10
01:10:48.953                             : :Chapter 11
01:18:18.777                             : :Chapter 12
01:24:55.256                             : :Chapter 13
01:29:32.200                             : :Chapter 14
01:31:59.931                             : :Chapter 15
-

_________________
Показать сообщения:    

Текущее время: Сегодня 03:38

Часовой пояс: GMT



Вы не можете начинать темы
Вы не можете отвечать на сообщения
Вы не можете редактировать свои сообщения
Вы не можете удалять свои сообщения
Вы не можете голосовать в опросах
Вы не можете прикреплять файлы к сообщениям
Вы не можете скачивать файлы