Важное объявление!
У Нас Все раздачи мультитрекерные, при нуле пиров в релизах, можете смело вставать на закачку!
 
Автор Сообщение

HUNTER

Стаж:
4 года 4 месяца
Сообщений:
56722

Репутация: 101

[+] [-]
Вне форума [Профиль] [ЛС]

Одержимость Майкла Кинга / The Possession of Michael King
Страна: США
Студия: Quickfire Films, Gold Circle Films
Жанр: ужасы
Год выпуска: 2014
Продолжительность: 01:23:24
Перевод 1: Любительский (двухголосый закадровый) lord666&Miori
Перевод 2: Авторский (одноголосый закадровый) Дольский
Cубтитры: нет
Оригинальная аудиодорожка: нет
Режиссер: Дэвид Юнг / David Jung
В ролях: Шэйн Джонсон, Элла Андерсон, Кара Пифко, Кристал Альварез, Томас Арана, Люк Бэйнс, Дейл Дикки, Каллен Дуглас, Майкл Рэй Эскамиллья, Рамона Дж. Фаррингтон
Описание: Главный герой фильма — режиссер-документалист, который не верит ни в Бога, ни в дьявола. Когда умирает его жена, он решает снять фильм о религии и спиритуализме и доказать, что вся мистика — это просто выдумка. В процессе съемок он встречается с демонологами, некромантами и оккультистами, которые испытывают на нем самые темные и сильные заклятия. Эти обряды пробуждают неведомые и безудержные силы зла…
Сэмпл: http://multi-up.com/1010292
Тип релиза: BDRip 1080p
Контейнер: MKV
Видео: V_MPEG4/ISO/AVC, 1920x1080, 16:9, 13,7 Мбит/сек, 23,976 кадра/сек
Аудио 1: Русский AC-3, 6 каналов, 48,0 КГц, 640 Кбит/сек lord666&Miori
Аудио 2: Русский AC-3, 6 каналов, 48,0 КГц, 640 Кбит/сек Дольский

MediaInfo

Общее
Уникальный идентификатор : 178009924616072324264031480397361756236 (0x85EB76E455D8FC24BAB5EA5017C2B84C)
Полное имя : E:\Temp\mk\The.Possession.of.Michael.King.2014.DVO.720p.mkv
Формат : Matroska
Версия формата : Version 2
Размер файла : 8,90 Гбайт
Продолжительность : 1 ч. 23 м.
Режим общего битрейта : Переменный
Общий поток : 15,3 Мбит/сек
Дата кодирования : UTC 2014-11-01 20:38:22
Программа кодирования : mkvmerge v5.8.0 ('No Sleep / Pillow') built on Sep 2 2012 15:37:04
Библиотека кодирования : libebml v1.2.3 + libmatroska v1.3.0
DURATION : 01:23:23.916000000
NUMBER_OF_FRAMES : 119974
NUMBER_OF_BYTES : 8759016832
_STATISTICS_WRITING_APP : mkvmerge v7.1.0 ('Good Love') 64bit built on Jul 27 2014 13:06:55
_STATISTICS_WRITING_DATE_UTC : 2014-09-04 19:06:57
_STATISTICS_TAGS : BPS DURATION NUMBER_OF_FRAMES NUMBER_OF_BYTES
Видео
Идентификатор : 1
Формат : AVC
Формат/Информация : Advanced Video Codec
Профиль формата : High@L4.1
Параметр CABAC формата : Да
Параметр ReFrames формата : 4 кадра
Режим смешивания : Header stripping
Идентификатор кодека : V_MPEG4/ISO/AVC
Продолжительность : 1 ч. 23 м.
Вид битрейта : Переменный
Битрейт : 13,7 Мбит/сек
Максимальный битрейт : 30,0 Мбит/сек
Ширина : 1920 пикселей
Высота : 1080 пикселей
Соотношение сторон : 16:9
Режим частоты кадров : Постоянный
Частота кадров : 23,976 кадра/сек
Цветовое пространство : YUV
Субдискретизация насыщенности : 4:2:0
Битовая глубина : 8 бит
Тип развёртки : Прогрессивная
Бит/(Пиксели*Кадры) : 0.276
Размер потока : 7,98 Гбайт (90%)
Язык : English
Default : Да
Forced : Нет
Аудио #1
Идентификатор : 2
Формат : AC-3
Формат/Информация : Audio Coding 3
Расширение режима : CM (complete main)
Параметр Endianness формата : Big
Идентификатор кодека : A_AC3
Продолжительность : 1 ч. 23 м.
Вид битрейта : Постоянный
Битрейт : 640 Кбит/сек
Каналы : 6 каналов
Расположение каналов : Front: L C R, Side: L R, LFE
Частота : 48,0 КГц
Битовая глубина : 16 бит
Метод сжатия : С потерями
Размер потока : 382 Мбайт (4%)
Заголовок : DVO [lord666 & Miori]
Язык : Russian
Default : Да
Forced : Нет
Аудио #2
Идентификатор : 3
Формат : AC-3
Формат/Информация : Audio Coding 3
Расширение режима : CM (complete main)
Параметр Endianness формата : Big
Идентификатор кодека : A_AC3
Продолжительность : 1 ч. 23 м.
Вид битрейта : Постоянный
Битрейт : 640 Кбит/сек
Каналы : 6 каналов
Расположение каналов : Front: L C R, Side: L R, LFE
Частота : 48,0 КГц
Битовая глубина : 16 бит
Метод сжатия : С потерями
Размер потока : 382 Мбайт (4%)
Заголовок : AVO [Dolskiy]
Язык : Russian
Default : Нет
Forced : Нет
Меню
00:00:00.000 : en:00:00:00.000
00:08:33.638 : en:00:08:33.638
00:18:26.688 : en:00:18:26.688
00:26:15.657 : en:00:26:15.657
00:34:24.687 : en:00:34:24.687
00:42:02.645 : en:00:42:02.645
00:46:34.041 : en:00:46:34.041
00:49:07.110 : en:00:49:07.110
00:53:31.166 : en:00:53:31.166
00:59:12.090 : en:00:59:12.090
01:09:56.400 : en:01:09:56.400
01:16:42.806 : en:01:16:42.806
01:23:23.748 : en:01:23:23.748

Скриншоты


_________________
Показать сообщения:    

Текущее время: Сегодня 13:11

Часовой пояс: GMT



Вы не можете начинать темы
Вы не можете отвечать на сообщения
Вы не можете редактировать свои сообщения
Вы не можете удалять свои сообщения
Вы не можете голосовать в опросах
Вы не можете прикреплять файлы к сообщениям
Вы не можете скачивать файлы