Важное объявление!
У Нас Все раздачи мультитрекерные, при нуле пиров в релизах, можете смело вставать на закачку!
 
Автор Сообщение

mihis

[Профиль] [ЛС]

Одержимая / Possession«She created a monster as her secret lover!»
Год выхода: 1981
Страна:Франция, Германия (ФРГ)
Жанр: ужасы, драма
Продолжительность: 02:03:00
Перевод: Профессиональный (Двухголосый, закадровый) + Авторский (одноголосый, закадровый) А.Алексеев + Оригинал
Субтитры: English (SDH)
Режиссер: Анджей Жулавски
В ролях: Изабель Аджани, Сэм Нил, Маргит Карстенсен, Хайнц Беннент, Йоханна Хофер, Карл Дюринг, Шон Лоутон, Майкл Хогбен, Максимилиан Рютлайн, Томас Фрей
Описание: Вернувшись домой из длительной командировки, Марк обнаружил, что за время своего отсутствия стал для жены Анны совсем чужим человеком. Он решает узнать всю правду. Но постепенно выясняется, что речь идет о чем-то большем, чем простая любовная интрига. С каждым днем супруги все глубже погружаются в пучину безумия, перерастающего в кровавый кошмар.

Качество: BDRip 720p
Формат: MKV
Видео: 1200x720 at 23.976 fps, x264@L4.1, ~ 11489 kbps avg
Аудио#1: 48 kHz, AC3, 2/0 (L,R) ch, ~192.00 kbps avg DVO
Аудио#2: 48 kHz, AC3, 2/0 (L,R) ch, ~192.00 kbps avg AVO
Аудио#3: 48 kHz/24-bit, FLAC 1.0, ~680 kbps avg Eng

Награды

Сезар, 1982 год
Победитель (1):
Лучшая актриса (Изабель Аджани)
Каннский кинофестиваль, 1981 год
Победитель (1):
Серебряная премия за лучшую женскую роль (Изабель Аджани)
Номинации (1):
Золотая пальмовая ветвь
Премия критики на МКФ в Сан-Паулу, приз за женскую роль и особое упоминание зрительского жюри на МКФ в Порту в 1983 году

MediaInfo

Общее
Уникальный идентификатор : 218159434710948919698122557963574239979 (0xA41FFA926098F9B5862F3FD44644E2EB)
Полное имя : D:\Video\Possession.1981.720p.Bluray.2xRus.Eng.HDCUB.mkv
Формат : Matroska
Версия формата : Version 2
Размер файла : 10,8 Гбайт
Продолжительность : 2 ч. 3 м.
Режим общего битрейта : Переменный
Общий поток : 12,6 Мбит/сек
Дата кодирования : UTC 2013-08-18 08:47:29
Программа кодирования : mkvmerge v5.8.0 ('No Sleep / Pillow') built on Sep 2 2012 15:37:04
Библиотека кодирования : libebml v1.2.3 + libmatroska v1.3.0
Видео
Идентификатор : 1
Формат : AVC
Формат/Информация : Advanced Video Codec
Профиль формата : High@L4.1
Параметр CABAC формата : Да
Параметр ReFrames формата : 12 кадров
Идентификатор кодека : V_MPEG4/ISO/AVC
Продолжительность : 2 ч. 3 м.
Ширина : 1200 пикселей
Высота : 720 пикселей
Соотношение сторон : 1,667
Режим частоты кадров : Постоянный
Частота кадров : 23,976 кадра/сек
Цветовое пространство : YUV
Субдискретизация насыщенности : 4:2:0
Битовая глубина : 8 бит
Тип развёртки : Прогрессивная
Библиотека кодирования : x264 core 135 r2345kMod f0c1c53
Настройки программы : cabac=1 / ref=12 / deblock=1:-3:-3 / analyse=0x3:0x113 / me=umh / subme=10 / psy=1 / fade_compensate=0.00 / psy_rd=0.90:0.15 / mixed_ref=1 / me_range=32 / chroma_me=1 / trellis=2 / 8x8dct=1 / cqm=0 / deadzone=21,11 / fast_pskip=0 / chroma_qp_offset=-3 / threads=6 / lookahead_threads=1 / sliced_threads=0 / nr=0 / decimate=1 / interlaced=0 / bluray_compat=0 / constrained_intra=0 / bframes=12 / b_pyramid=2 / b_adapt=2 / b_bias=0 / direct=3 / weightb=1 / open_gop=0 / weightp=2 / keyint=250 / keyint_min=23 / scenecut=40 / intra_refresh=0 / rc_lookahead=40 / rc=crf / mbtree=0 / crf=19.0000 / qcomp=0.75 / qpmin=0 / qpmax=69 / qpstep=4 / vbv_maxrate=62500 / vbv_bufsize=78125 / crf_max=0.0 / nal_hrd=none / ip_ratio=1.40 / pb_ratio=1.30 / aq=1:0.80
Язык : English
Default : Да
Forced : Нет
Основные цвета : BT.709
Характеристики трансфера : BT.709
Коэффициенты матрицы : BT.709
Аудио #1
Идентификатор : 2
Формат : AC-3
Формат/Информация : Audio Coding 3
Расширение режима : CM (complete main)
Параметр Endianness формата : Big
Идентификатор кодека : A_AC3
Продолжительность : 2 ч. 3 м.
Вид битрейта : Постоянный
Битрейт : 192 Кбит/сек
Каналы : 2 канала
Расположение каналов : Front: L R
Частота : 48,0 КГц
Битовая глубина : 16 бит
Метод сжатия : С потерями
Размер потока : 170 Мбайт (2%)
Заголовок : Двухголосый закадровый
Язык : Russian
Default : Да
Forced : Нет
Аудио #2
Идентификатор : 3
Формат : AC-3
Формат/Информация : Audio Coding 3
Расширение режима : CM (complete main)
Параметр Endianness формата : Big
Идентификатор кодека : A_AC3
Продолжительность : 2 ч. 3 м.
Вид битрейта : Постоянный
Битрейт : 192 Кбит/сек
Каналы : 2 канала
Расположение каналов : Front: L R
Частота : 48,0 КГц
Битовая глубина : 16 бит
Метод сжатия : С потерями
Размер потока : 170 Мбайт (2%)
Заголовок : Одноголосый закадровый, А.Алексеев
Язык : Russian
Default : Нет
Forced : Нет
Аудио #3
Идентификатор : 4
Формат : FLAC
Формат/Информация : Free Lossless Audio Codec
Идентификатор кодека : A_FLAC
Продолжительность : 2 ч. 3 м.
Вид битрейта : Переменный
Каналы : 1 канал
Частота : 48,0 КГц
Битовая глубина : 24 бит
Библиотека кодирования : libFLAC 1.2.1 (UTC 2007-09-17)
Язык : English
Default : Нет
Forced : Нет
Текст
Идентификатор : 5
Формат : UTF-8
Идентификатор кодека : S_TEXT/UTF8
Идентификатор кодека/Информация : UTF-8 Plain Text
Язык : English
Default : Нет
Forced : Нет
Меню
00:00:00.000 : en:00:00:00.000
00:05:42.383 : en:00:05:42.383
00:12:49.018 : en:00:12:49.018
00:19:15.112 : en:00:19:15.112
00:26:41.516 : en:00:26:41.516
00:31:39.939 : en:00:31:39.939
00:35:43.015 : en:00:35:43.015
00:44:18.322 : en:00:44:18.322
00:48:48.091 : en:00:48:48.091
00:56:00.774 : en:00:56:00.774
01:04:38.040 : en:01:04:38.040
01:09:49.018 : en:01:09:49.018
01:13:20.229 : en:01:13:20.229
01:21:10.615 : en:01:21:10.615
01:27:16.189 : en:01:27:16.189
01:30:48.693 : en:01:30:48.693
01:41:09.688 : en:01:41:09.688
01:47:54.384 : en:01:47:54.384
01:52:50.764 : en:01:52:50.764
02:00:36.270 : en:02:00:36.270
02:03:40.996 : en:02:03:40.996
 
Показать сообщения:    

Текущее время: Сегодня 16:57

Часовой пояс: GMT



Вы не можете начинать темы
Вы не можете отвечать на сообщения
Вы не можете редактировать свои сообщения
Вы не можете удалять свои сообщения
Вы не можете голосовать в опросах
Вы не можете прикреплять файлы к сообщениям
Вы не можете скачивать файлы