Важное объявление!
У Нас Все раздачи мультитрекерные, при нуле пиров в релизах, можете смело вставать на закачку!
 
Автор Сообщение

HUNTER

Стаж:
4 года 4 месяца
Сообщений:
56839

Репутация: 101

[+] [-]
Вне форума [Профиль] [ЛС]

Огни рампы / Limelight
Страна: США
Жанр: драма, комедия
Год выпуска: 1952
Продолжительность: 02:17:52
Перевод: Профессиональный (полное дублирование) киностудия имени М. Горького
Перевод: Профессиональный (многоголосый закадровый)
Перевод: Одноголосый закадровый, Деваль Видео
Cубтитры: русские, английские
Оригинальная аудиодорожка: английский-Режиссер: Чарльз Чаплин / Charles Chaplin
В ролях: Чарльз Спенсер Чаплин, Клэр Блум, Бастер Китон, Сидни Чаплин, Бэрри Бернард, Молли Глессинг, Леонард Мьюди, Лойял Андервуд, Снуб Поллард, Дорис Ллойд, Тревор Уорд, Степлтон Кент, Джулиан Людвиг, Найджел Брюс, Норман Ллойд, Андре Эглевски, Мелисса Хэйден, Марджори Беннетт, Уилер Драйден
Описание: Подвыпивший стареющий клоун Калверо, придя домой, почувствовал запах газа и взломал дверь соседней комнаты, где обнаружил Терезу. Она оказалась бывшей танцовщицей королевского балета. Вынужденная покинуть труппу из-за ревматизма Тереза решилась на самоубийство...
IMDb || КиноПоиск-Тип релиза: BDRemux 1080p
Контейнер: MKV
Видео: MPEG-4 AVC Video, 1920x1080 at 23.976 fps, 25500 kbps
Аудио#1: Russian: 48 kHz, AC3, 2.0 ch, 192 kbps
Аудио#2: Russian: 48 kHz, AC3, 2.0 ch, 192 kbps
Аудио#3: Russian: 48 kHz, FLAC, 2.0 ch, 362 kbps
Аудио#4: English: 48 kHz, FLAC, 1.0 ch, 542 kbps
Формат субтитров: softsub (SRT)
Сэмпл

Дополнительно

Отечественные дорожки из раздач: дубляж и многоголосый перевод (запись с ТВ), одноголосый. Авторам спасибо.

MediaInfo

General
Unique ID : 217172555442013532029353940990076359477 (0xA361E9AACD671E08927BE05BA0C79335)
Complete name : Limelight.1952.Criterion.BDRemux. rutracker.mkv
Format : Matroska
Format version : Version 2
File size : 25.8 GiB
Duration : 2h 17mn
Overall bit rate mode : Variable
Overall bit rate : 26.8 Mbps
Movie name : Release for RuTracker
Writing application : mkvmerge v5.0.1 ('Es ist Sommer') built on Nov 6 2011 16:23:40
Writing library : libebml v1.2.2 + libmatroska v1.3.0
Video
ID : 1
Format : AVC
Format/Info : Advanced Video Codec
Format profile : High@L4.1
Format settings, CABAC : Yes
Format settings, ReFrames : 4 frames
Codec ID : V_MPEG4/ISO/AVC
Duration : 2h 17mn
Bit rate mode : Variable
Maximum bit rate : 37.0 Mbps
Width : 1 920 pixels
Height : 1 080 pixels
Display aspect ratio : 16:9
Frame rate mode : Constant
Frame rate : 23.976 fps
Color space : YUV
Chroma subsampling : 4:2:0
Bit depth : 8 bits
Scan type : Progressive
Title : Limelight.1952.Criterion.BDRemux. rutracker
Language : English
Default : Yes
Forced : No
Audio #1
ID : 2
Format : AC-3
Format/Info : Audio Coding 3
Mode extension : CM (complete main)
Format settings, Endianness : Big
Codec ID : A_AC3
Duration : 2h 17mn
Bit rate mode : Constant
Bit rate : 192 Kbps
Channel(s) : 2 channels
Channel positions : Front: L R
Sampling rate : 48.0 KHz
Bit depth : 16 bits
Compression mode : Lossy
Stream size : 189 MiB (1%)
Title : Дубляж
Language : Russian
Default : Yes
Forced : No
Audio #2
ID : 3
Format : AC-3
Format/Info : Audio Coding 3
Mode extension : CM (complete main)
Format settings, Endianness : Big
Codec ID : A_AC3
Duration : 2h 17mn
Bit rate mode : Constant
Bit rate : 192 Kbps
Channel(s) : 2 channels
Channel positions : Front: L R
Sampling rate : 48.0 KHz
Bit depth : 16 bits
Compression mode : Lossy
Stream size : 189 MiB (1%)
Title : Проф. многоголосый закадровый
Language : Russian
Default : No
Forced : No
Audio #3
ID : 4
Format : FLAC
Format/Info : Free Lossless Audio Codec
Codec ID : A_FLAC
Duration : 2h 17mn
Bit rate mode : Variable
Channel(s) : 2 channels
Sampling rate : 48.0 KHz
Bit depth : 16 bits
Title : Деваль Видео
Writing library : libFLAC 20080709 (UTC 2008-07-09)
Language : Russian
Default : No
Forced : No
Audio #4
ID : 5
Format : FLAC
Format/Info : Free Lossless Audio Codec
Codec ID : A_FLAC
Duration : 2h 17mn
Bit rate mode : Variable
Channel(s) : 1 channel
Sampling rate : 48.0 KHz
Bit depth : 24 bits
Writing library : libFLAC 20080709 (UTC 2008-07-09)
Language : English
Default : No
Forced : No
Text #1
ID : 6
Format : UTF-8
Codec ID : S_TEXT/UTF8
Codec ID/Info : UTF-8 Plain Text
Language : Russian
Default : No
Forced : No
Text #2
ID : 7
Format : UTF-8
Codec ID : S_TEXT/UTF8
Codec ID/Info : UTF-8 Plain Text
Language : English
Default : No
Forced : No
Menu
00:00:00.000 : en:Opening titles
00:02:10.880 : en:A life saved
00:10:42.767 : en:Avoiding Mrs. Alsop
00:15:45.527 : en:Phyllis and Henry
00:23:17.104 : en:Introductions
00:29:44.657 : en:"Spring is here"
00:35:30.086 : en:Kippers and happiness
00:41:35.618 : en:Redfern
00:44:15.653 : en:"She must help herself"
00:53:36.379 : en:Terry's progress
00:57:58.933 : en:Calvero plays the Middlesex
01:00:25.955 : en:A good omen
01:05:11.949 : en:"Six months later"
01:11:10.557 : en:Terry's big audition
01:16:01.223 : en:"I just love you"
01:21:08.780 : en:Columbine
01:26:56.961 : en:Stage fright
01:34:06.140 : en:Opening-night party
01:39:37.137 : en:Truth and dignity
01:45:48.425 : en:"The tramp in me"
01:52:25.572 : en:Benefit for Calvero
02:00:47.406 : en:Calvero's encore
02:09:50.324 : en:"Did you hear them?"

Скриншоты

Savor (Spa) vs Criterion (Us)

_________________
Показать сообщения:    

Текущее время: Сегодня 02:24

Часовой пояс: GMT



Вы не можете начинать темы
Вы не можете отвечать на сообщения
Вы не можете редактировать свои сообщения
Вы не можете удалять свои сообщения
Вы не можете голосовать в опросах
Вы не можете прикреплять файлы к сообщениям
Вы не можете скачивать файлы