Важное объявление!
У Нас Все раздачи мультитрекерные, при нуле пиров в релизах, можете смело вставать на закачку!
 
Автор Сообщение

димитри37

Стаж:
3 года 8 месяцев
Сообщений:
1237

Репутация: 127

[+] [-]
Вне форума [Профиль] [ЛС]

size=24]Огненная Застава. Оставшиеся в живых
Год выпуска: 2013
Страна: Россия
Жанр: документальный
Продолжительность: 00:44:05
Перевод: Не требуется
Русские субтитры: нет
Режиссер: Игорь Чернов
Описание: 13 июля 2013 года исполняется 20 лет трагедии, произошедшей на 12-й заставе Московского погранотряда, в районе населенного пункта Соригор, на таджико-афганской границе. Российские пограничники подверглись нападению большой группы моджахедов. Более 10 часов личный состав заставы, заняв круговую оборону, героически отражал атаки противника. 25 солдат и офицеров погибли. 18 пограничникам, несмотря на то что среди них было много раненых, удалось пробиться из окружения к идущим им на выручку товарищам. Заместитель начальника заставы лейтенант Мерзликин, выведший своих подчиненных из боя, тогда доложил начальству: "Застава, смирно! Оставшиеся в живых находятся перед вами".
В основу этого фильма положены встречи Александра Сладкова с "оставшимися в живых" - пограничниками, героически оборонявшими 12-ю заставу 13 июля 1993 года. Прошло 20 лет. Как сложились судьбы этих людей? Кем они стали? Что они вспоминают о тех "огненных" днях?
В фильме использован уникальный видеоархив, снятый в Таджикистане в период 1992-1993 годов: события на афганской границе и непосредственно на 12-й заставе как до, так и после рассматриваемых в фильме событий.
Авторы сценария: Александр Сладков, Дмитрий Коняхин
качество: DVDRip
формат: AVI
Видео: 704x400 (1.76:1), 25 fps, XviD MPEG-4 ~1640 kbps avg, 0.23 bit/pixel
Аудио: 48 kHz, AC3 Dolby Digital, 2/0 (L,R) ch, ~256 kbps

MediaInfo

Формат : AVI
Формат/Информация : Audio Video Interleave
Размер файла : 601 Мбайт
Продолжительность : 44 м.
Общий поток : 1907 Кбит/сек
Библиотека кодирования : VirtualDub build 30009/release
Видео
Идентификатор : 0
Формат : MPEG-4 Visual
Профиль формата : Advanced Simple@L5
Параметр BVOP формата : 2
Параметр QPel формата : Нет
Параметр GMC формата : Без точки перехода
Параметр матрицы формата : Default (MPEG)
Режим смешивания : Сжатый битовый поток
Идентификатор кодека : XVID
Идентификатор кодека/Подсказка : XviD
Продолжительность : 44 м.
Битрейт : 1641 Кбит/сек
Ширина : 704 пикселя
Высота : 400 пикселей
Соотношение сторон : 16:9
Частота кадров : 25,000 кадров/сек
Цветовое пространство : YUV
Субдискретизация насыщенности : 4:2:0
Битовая глубина : 8 бит
Тип развёртки : Прогрессивная
Метод сжатия : С потерями
Бит/(Пиксели*Кадры) : 0.233
Размер потока : 518 Мбайт (86%)
Библиотека кодирования : XviD 64
Аудио
Идентификатор : 1
Формат : AC-3
Формат/Информация : Audio Coding 3
Расширение режима : CM (complete main)
Параметр Endianness формата : Big
Идентификатор кодека : 2000
Продолжительность : 44 м.
Вид битрейта : Постоянный
Битрейт : 256 Кбит/сек
Каналы : 2 канала
Расположение каналов : Front: L R
Частота : 48,0 КГц
Битовая глубина : 16 бит
Метод сжатия : С потерями
Размер потока : 80,7 Мбайт (13%)
Выравнивание : Соединение по промежуткам
Продолжительность промежутка : 40 мс. (1,00 видеокадр)
Время предзагрузки промежутка : 512 мс.

Скриншоты

-
Показать сообщения:    

Текущее время: Сегодня 03:13

Часовой пояс: GMT



Вы не можете начинать темы
Вы не можете отвечать на сообщения
Вы не можете редактировать свои сообщения
Вы не можете удалять свои сообщения
Вы не можете голосовать в опросах
Вы не можете прикреплять файлы к сообщениям
Вы не можете скачивать файлы