Важное объявление!
У Нас Все раздачи мультитрекерные, при нуле пиров в релизах, можете смело вставать на закачку!
 
Автор Сообщение

HUNTER

Стаж:
4 года 4 месяца
Сообщений:
56755

Репутация: 101

[+] [-]
Вне форума [Профиль] [ЛС]

Огнедышащий : Firebreather
Год выпуска: 2010
Страна: США
Жанр: мультфильм, фэнтези
Продолжительность: 01:09:29
Перевод:
Профессиональный (Дублированный) - Cartoon Network
Любительский (Двухголосый закадровый)
русские субтитры: нет-Режиссёр: Питер Чунг : Peter Chung-Роли озвучивали: Тиа Тексада, Джесси Хэд, Данте Баско, Эми Дэвидсон, Дана Дилэйни, Грэй ДеЛисл, Рид Даймонд, Билли Эванс, Джошуа Китон, Джеймисон Мосс-Описание: История о фрагменте жизни 16-летнего юноши Дункана и его семьи. Мама Дункана обычный человек, а отец является гигантским драконом "кайджу" - древнейшей расы на земле. Дункан хочет, чтобы он был нормальным ребенком в обычной школе. Пока он не понимает, что он что-то очень далекое от нормального...- релиз: -- Работа с Remux'ом и со звуком -Azureus--Качество: BDRemux 1080p
Формат: MKV
Видео кодек: VC-1
Аудио кодек: AC3 : DTS MA
Видео: 1980x1080 , 23,976 fps, ~18,7 Мbps avg, 0.326 bit/pixel
Аудио #1: [RUS] 48 kHz, AC3 Dolby Digital, 2/0 (L,R) ch, ~192 kbpsavg - DUB
Аудио #2: [RUS] 48 kHz, AC3 Dolby Digital, 3/2 (L,C,R,l,r) + LFE ch, ~448 kbps - DVO
Аудио #3: [ENG] DTS-HD MA 5.1 / 48 kHz / 2364 kbps / 16-bit (DTS Core: 5.1 / 48 kHz / 1509 kbps / 16-bit)
субтитры: английские (full)
навигация по главам: 8 глав MediaInfo
Общее
Уникальный идентификатор : 206153073885692225415609462637991952191 (0x9B17A347AC4877DABE8DABBACB1DFF3F)
Полное имя : D:\Im\Огнедышащий\Firebreather.2010.BDRemux 1080p.mkv
Формат : Matroska
Версия формата : Version 4 / Version 2
Размер файла : 10,8 Гбайт
Продолжительность : 1 ч. 9 м.
Режим общего битрейта : Переменный
Общий поток : 22,4 Мбит/сек
Название фильма : Firebreather.2010.BDRemux 1080p -Azureus-
Дата кодирования : UTC 2014-06-23 14:46:57
Программа кодирования : mkvmerge v7.0.0 ('Where We Going') 32bit built on Jun 9 2014 15:08:34
Библиотека кодирования : libebml v1.3.0 + libmatroska v1.4.1
DURATION : 01:09:07.499000000
NUMBER_OF_FRAMES : 388828
NUMBER_OF_BYTES : 1182078284
_STATISTICS_WRITING_APP : mkvmerge v7.0.0 ('Where We Going') 32bit built on Jun 9 2014 15:08:34
_STATISTICS_WRITING_DATE_UTC : 2014-06-23 14:46:57
_STATISTICS_TAGS : BPS DURATION NUMBER_OF_FRAMES NUMBER_OF_BYTES
Видео
Идентификатор : 1
Формат : VC-1
Профиль формата : Advanced@L3
Идентификатор кодека : V_MS/VFW/FOURCC / WVC1
Идентификатор кодека/Подсказка : Microsoft
Продолжительность : 1 ч. 9 м.
Ширина : 1920 пикселей
Высота : 1080 пикселей
Соотношение сторон : 16:9
Режим частоты кадров : Постоянный
Частота кадров : 23,976 кадра/сек
Цветовое пространство : YUV
Субдискретизация насыщенности : 4:2:0
Битовая глубина : 8 бит
Тип развёртки : Прогрессивная
Метод сжатия : С потерями
Язык : English
Default : Да
Forced : Нет
Аудио #1
Идентификатор : 2
Формат : AC-3
Формат/Информация : Audio Coding 3
Расширение режима : CM (complete main)
Параметр Endianness формата : Big
Идентификатор кодека : A_AC3
Продолжительность : 1 ч. 9 м.
Вид битрейта : Постоянный
Битрейт : 192 Кбит/сек
Каналы : 2 канала
Расположение каналов : Front: L R
Частота : 48,0 КГц
Битовая глубина : 16 бит
Метод сжатия : С потерями
Размер потока : 94,9 Мбайт (1%)
Заголовок : DUB - Cartoon Network
Язык : Russian
Default : Да
Forced : Нет
Аудио #2
Идентификатор : 3
Формат : AC-3
Формат/Информация : Audio Coding 3
Расширение режима : CM (complete main)
Параметр Endianness формата : Big
Идентификатор кодека : A_AC3
Продолжительность : 1 ч. 9 м.
Вид битрейта : Постоянный
Битрейт : 448 Кбит/сек
Каналы : 6 каналов
Расположение каналов : Front: L C R, Side: L R, LFE
Частота : 48,0 КГц
Битовая глубина : 16 бит
Метод сжатия : С потерями
Размер потока : 222 Мбайт (2%)
Заголовок : DVO
Язык : Russian
Default : Нет
Forced : Нет
Аудио #3
Идентификатор : 4
Формат : DTS
Формат/Информация : Digital Theater Systems
Профиль формата : MA / Core
Режим : 16
Параметр Endianness формата : Big
Идентификатор кодека : A_DTS
Продолжительность : 1 ч. 9 м.
Вид битрейта : Переменный
Битрейт : Неизвестно / 1509 Кбит/сек
Каналы : 6 каналов
Расположение каналов : Front: L C R, Side: L R, LFE
Частота : 48,0 КГц
Битовая глубина : 16 бит
Метод сжатия : Без потерь / Lossy
Заголовок : ENG
Язык : English
Default : Нет
Forced : Нет
Текст
Идентификатор : 5
Формат : UTF-8
Идентификатор кодека : S_TEXT/UTF8
Идентификатор кодека/Информация : UTF-8 Plain Text
Заголовок : Eng Sub - full
Язык : English
Default : Нет
Forced : Нет
Меню
00:00:00.000 : en:00:00:00.000
00:08:24.462 : en:00:08:24.462
00:18:59.347 : en:00:18:59.347
00:28:59.905 : en:00:28:59.905
00:38:21.216 : en:00:38:21.216
00:51:06.188 : en:00:51:06.188
00:59:13.133 : en:00:59:13.133
01:06:57.222 : en:01:06:57.222
____________________________________________
Стою на раздаче до 5 дней.
Просьба скачавшим как можно дольше не покидать раздачу!
ВСЕМ ПРИЯТНОГО ПРОСМОТРА!_________________________________________

_________________
Показать сообщения:    

Текущее время: Сегодня 17:33

Часовой пояс: GMT



Вы не можете начинать темы
Вы не можете отвечать на сообщения
Вы не можете редактировать свои сообщения
Вы не можете удалять свои сообщения
Вы не можете голосовать в опросах
Вы не можете прикреплять файлы к сообщениям
Вы не можете скачивать файлы